<?xml version="1.0" standalone="no"?>
<!DOCTYPE svg PUBLIC "-//W3C//DTD SVG 1.1//EN" "http://www.w3.org/Graphics/SVG/1.1/DTD/svg11.dtd" >
<svg xmlns="http://www.w3.org/2000/svg">
<metadata>
<json>
<![CDATA[
{
	"fontFamily": "pages-icon",
	"majorVersion": 1,
	"minorVersion": 0,
	"fontURL": "http://pages.revox.io/dashboard/",
	"designer": "Ace",
	"designerURL": "https://themeforest.net/user/ace/portfolio",
	"description": "This icon pack is a re-structured version of Material icons that was made for pages UI framework.\nFont generated by pages-icon.",
	"copyright": "© 2020 Revox.",
	"version": "Version 1.0",
	"fontId": "pages-icon",
	"psName": "pages-icon",
	"subFamily": "Regular",
	"fullName": "pages-icon"
}
]]>
</json>
</metadata>
<defs>
<font id="pages-icon" horiz-adv-x="1024">
<font-face units-per-em="1024" ascent="960" descent="-64" />
<missing-glyph horiz-adv-x="1024" />
<glyph unicode="&#x20;" glyph-name="space" data-tags="space" horiz-adv-x="166" d="" />
<glyph unicode="&#x21;" glyph-name="exclamation" data-tags="exclamation" horiz-adv-x="232" d="M116.224 241.664c-0.21-0.003-0.458-0.004-0.706-0.004-16.594 0-31.585 6.865-42.287 17.909l-0.015 0.015c-11.064 10.558-17.943 25.418-17.943 41.884 0 0.575 0.008 1.149 0.025 1.72l-0.002-0.084c-0.009 0.382-0.015 0.832-0.015 1.283 0 16.255 6.887 30.902 17.902 41.183l0.033 0.030c10.717 11.060 25.708 17.924 42.302 17.924 0.248 0 0.496-0.002 0.743-0.005h-0.038c33.464-0.275 60.587-27.040 61.438-60.337l0.002-0.079c-0.222-17.031-7.226-32.384-18.429-43.517l-0.003-0.003c-10.955-11.067-26.149-17.92-42.944-17.92-0.023 0-0.045 0-0.068 0h0.003zM173.056 768l-10.24-365.056h-93.184l-10.24 365.056z" />
<glyph unicode="&#x23;" glyph-name="hash" data-tags="hash" horiz-adv-x="465" d="M240.64 248.32l21.504 129.536h-102.4l-21.504-129.536h-80.896l21.504 129.536h-71.68l13.824 82.944h71.168l16.384 99.84h-71.168l13.824 79.872h70.656l20.992 127.488h81.408l-19.456-127.488h102.4l18.944 127.488h83.456l-23.040-127.488h74.24l-16.384-81.408h-71.168l-14.848-98.304h69.632l-13.312-82.944h-71.168l-21.504-129.536zM173.568 460.8h102.4l15.872 98.304h-102.4z" />
<glyph unicode="&#x24;" glyph-name="dollar" data-tags="dollar" horiz-adv-x="470" d="M204.8 183.296v58.88c-49.426 2.507-93.996 21.455-128.79 51.434l0.278-0.234c-29.411 28.832-47.642 68.974-47.642 113.374 0 1.002 0.009 2.002 0.028 3l-0.002-0.15h106.496c0.383-20.075 8.732-38.128 22.006-51.19l0.010-0.010c13.531-13.135 31.115-22.161 50.701-25.028l0.499-0.060v134.656l-24.064 9.216c-39.694 8.609-74.298 26.543-102.658 51.422l0.258-0.222c-24.254 21.142-39.495 52.090-39.495 86.599 0 1.416 0.026 2.825 0.077 4.228l-0.006-0.203c-0.058 1.463-0.090 3.182-0.090 4.908 0 26.702 7.862 51.568 21.397 72.409l-0.315-0.517c15.062 22.939 35.262 41.336 59.039 53.857l0.865 0.415c25.516 13.774 55.455 22.939 87.251 25.546l0.813 0.054v59.392h60.416v-59.904c45.811-3.354 86.668-22.22 117.875-51.306l-0.115 0.106c27.462-26.004 44.552-62.721 44.552-103.431 0-0.538-0.003-1.075-0.009-1.611l0.001 0.082h-105.984c-2.208 31.631-26.214 57.040-56.991 61.399l-0.353 0.041v-127.488l14.848-3.584c30.337-6.488 57.202-16.562 81.992-29.98l-1.608 0.796c22.732-12.644 41.465-29.905 55.448-50.634l0.36-0.566c12.57-19.949 20.029-44.215 20.029-70.223 0-1.413-0.022-2.82-0.066-4.222l0.005 0.205c0.050-1.384 0.078-3.009 0.078-4.642 0-40.846-17.78-77.538-46.024-102.76l-0.135-0.118c-34.541-28.768-79.095-46.579-127.778-47.612l-0.222-0.004v-58.88zM208.384 569.856v112.64c-16.090-2.887-30.088-10.362-40.975-21.006l0.015 0.014c-8.524-9.088-13.776-21.334-13.824-34.806v-0.010c-0.049-0.765-0.077-1.659-0.077-2.56 0-13.156 5.979-24.916 15.367-32.711l0.070-0.056c11.279-9.693 24.822-17.101 39.705-21.324l0.743-0.18zM266.752 336.384c17.959 2.744 33.719 10.623 46.14 22.071l-0.060-0.055c10.405 9.409 16.915 22.957 16.915 38.026 0 0.492-0.007 0.981-0.021 1.47l0.002-0.072c0.007 0.285 0.010 0.621 0.010 0.957 0 13.58-6.148 25.725-15.813 33.802l-0.070 0.057c-12.807 9.801-27.819 17.515-44.090 22.285l-0.966 0.243z" />
<glyph unicode="&#x25;" glyph-name="percentage" data-tags="percentage" horiz-adv-x="616" d="M59.904 644.608v27.648c0.083 21.109 5.182 41.007 14.165 58.592l-0.341-0.736c8.935 17.59 22.214 31.855 38.458 41.728l0.454 0.256c16.591 10.014 36.626 15.939 58.046 15.939 1.374 0 2.741-0.024 4.103-0.073l-0.197 0.006c1.246 0.047 2.709 0.074 4.178 0.074 21.844 0 42.305-5.922 59.864-16.247l-0.555 0.302c16.494-10.192 29.598-24.446 38.132-41.396l0.268-0.588c8.402-16.231 13.329-35.432 13.329-55.784 0-0.729-0.006-1.456-0.019-2.181l0.001 0.109v-27.648c0.015-0.722 0.024-1.574 0.024-2.427 0-20.232-4.931-39.313-13.656-56.105l0.32 0.677c-9.073-17.498-22.318-31.728-38.46-41.724l-0.452-0.26c-17.131-9.697-37.622-15.411-59.448-15.411-1.241 0-2.477 0.018-3.708 0.055l0.181-0.004c-1.27-0.051-2.76-0.079-4.257-0.079-21.475 0-41.565 5.929-58.724 16.239l0.516-0.288c-16.808 9.992-30.126 24.297-38.652 41.408l-0.26 0.576c-8.3 16.752-13.201 36.462-13.312 57.307v0.037zM84.992 248.32l358.4 519.68h68.608l-358.4-519.68zM136.192 672.256v-27.648c0-0.059 0-0.129 0-0.199 0-12.505 3.225-24.257 8.89-34.47l-0.185 0.364c5.818-9.657 16.247-16.016 28.162-16.016 1.081 0 2.15 0.052 3.204 0.155l-0.134-0.011c0.007 0 0.015 0 0.023 0 12.022 0 22.577 6.278 28.567 15.734l0.082 0.138c5.167 9.574 8.203 20.954 8.203 33.044 0 0.443-0.004 0.885-0.012 1.326l0.001-0.066v27.648c0.007 0.375 0.011 0.817 0.011 1.26 0 12.090-3.036 23.47-8.388 33.421l0.185-0.377c-5.61 9.995-16.14 16.637-28.222 16.637-1.422 0-2.822-0.092-4.196-0.27l0.162 0.017c-0.835 0.076-1.805 0.119-2.786 0.119-12.113 0-22.691-6.572-28.362-16.346l-0.084-0.157c-4.244-9.165-6.72-19.892-6.72-31.197 0-1.093 0.023-2.18 0.069-3.262l-0.005 0.155zM327.68 346.112v27.648c-0.001 0.159-0.001 0.348-0.001 0.537 0 20.87 4.916 40.592 13.654 58.071l-0.34-0.752c9.073 17.498 22.318 31.728 38.46 41.724l0.452 0.26c16.774 10.015 36.996 15.936 58.601 15.936 1.358 0 2.711-0.023 4.058-0.070l-0.196 0.005c1.335 0.055 2.902 0.087 4.476 0.087 21.574 0 41.763-5.93 59.026-16.25l-0.526 0.291c16.698-10.129 29.977-24.394 38.643-41.403l0.269-0.581c8.102-15.831 12.851-34.534 12.851-54.347 0-1.234-0.018-2.464-0.055-3.689l0.004 0.179v-27.648c0.032-1.038 0.051-2.258 0.051-3.483 0-19.648-4.75-38.186-13.164-54.53l0.313 0.669c-9.114-17.768-22.553-32.193-38.965-42.235l-0.459-0.261c-16.642-10.023-36.732-15.951-58.207-15.951-1.497 0-2.987 0.029-4.47 0.086l0.213-0.007c-1.27-0.051-2.76-0.079-4.257-0.079-21.475 0-41.565 5.929-58.724 16.239l0.516-0.288c-16.757 10.258-30.050 24.702-38.644 41.903l-0.268 0.593c-8.396 16.42-13.316 35.818-13.316 56.365 0 0.344 0.001 0.688 0.004 1.032v-0.053zM401.408 373.76v-27.648c0.216-12.345 3.218-23.939 8.4-34.248l-0.208 0.456c5.749-9.956 16.341-16.548 28.472-16.548 1.152 0 2.291 0.059 3.413 0.176l-0.14-0.012c1.066-0.123 2.301-0.193 3.553-0.193 11.935 0 22.38 6.381 28.109 15.917l0.083 0.148c5.482 9.506 8.715 20.907 8.715 33.063 0 0.436-0.004 0.872-0.012 1.306l0.001-0.065v27.648c0.062 1.137 0.098 2.469 0.098 3.808 0 11.645-2.681 22.663-7.459 32.472l0.194-0.44c-5.545 9.741-15.858 16.204-27.68 16.204-1.615 0-3.201-0.121-4.751-0.353l0.175 0.022c-1.354 0.198-2.917 0.311-4.507 0.311-11.983 0-22.464-6.432-28.178-16.033l-0.083-0.151c-5.168-10.433-8.192-22.717-8.192-35.708 0-0.046 0-0.093 0-0.139v0.007z" />
<glyph unicode="&#x26;" glyph-name="and" data-tags="and" horiz-adv-x="483" d="M204.8 240.64c-1.512-0.039-3.293-0.061-5.078-0.061-32.156 0-62.631 7.195-89.903 20.063l1.286-0.545c-24.562 11.81-44.781 29.238-59.574 50.694l-0.33 0.506c-13.175 20.643-21 45.81-21 72.804 0 0.505 0.003 1.009 0.008 1.512l-0.001-0.077c-0.068 1.462-0.107 3.176-0.107 4.899 0 26.722 9.305 51.271 24.852 70.583l-0.169-0.217c20.083 23.782 42.807 44.392 67.969 61.715l1.151 0.749c-12.93 16.11-24.674 34.237-34.499 53.506l-0.829 1.79c-9.050 18.225-14.345 39.689-14.345 62.39 0 0.566 0.003 1.131 0.010 1.696l-0.001-0.086c-0.015 0.738-0.023 1.609-0.023 2.482 0 24.312 6.468 47.114 17.776 66.778l-0.345-0.652c12.623 20.19 29.943 36.361 50.485 47.27l0.715 0.346c20.865 11.301 45.679 17.944 72.044 17.944 0.952 0 1.902-0.009 2.85-0.026l-0.142 0.002c1.064 0.028 2.316 0.043 3.572 0.043 25.095 0 48.726-6.269 69.412-17.326l-0.792 0.387c37.185-20.424 61.968-59.323 61.968-104.010 0-0.694-0.006-1.386-0.018-2.078l0.001 0.104c0.005-0.433 0.008-0.945 0.008-1.458 0-24.266-6.862-46.929-18.752-66.154l0.311 0.54c-13.46-20.64-30.56-37.74-50.541-50.796l-0.659-0.404-30.208-23.552 86.016-99.328c6.324 11.954 11.91 25.894 16.016 40.455l0.368 1.529c2.729 11.902 4.293 25.57 4.293 39.603 0 2.998-0.071 5.98-0.213 8.943l0.016-0.419h91.648c0.021-1.339 0.032-2.92 0.032-4.504 0-31.613-4.689-62.13-13.41-90.895l0.577 2.215c-8.077-26.754-19.78-50.065-34.781-70.838l0.477 0.694 78.336-91.136h-113.152l-31.744 35.328c-18.173-14.19-39.486-25.396-62.622-32.409l-1.378-0.359c-20.151-6.116-43.354-9.829-67.362-10.237l-0.222-0.003zM279.552 348.672l-100.352 112.128h-3.072c-12.759-8.573-23.35-19.328-31.483-31.828l-0.261-0.428c-6.192-8.711-9.989-19.504-10.239-31.171l-0.001-0.061c-0.008-0.372-0.013-0.81-0.013-1.249 0-17.932 7.682-34.070 19.935-45.302l0.046-0.041c13.705-11.808 31.679-18.999 51.333-18.999 1.034 0 2.062 0.020 3.086 0.059l-0.147-0.005c1.479-0.060 3.216-0.094 4.96-0.094 23.77 0 46.069 6.303 65.315 17.329l-0.643-0.339zM199.68 573.44l27.136 17.408c21.45 10.73 36.276 31.879 37.878 56.631l0.010 0.201c-0.224 11.233-4.88 21.336-12.285 28.669l-0.003 0.003c-7.978 8.025-19.024 12.991-31.23 12.991-1.443 0-2.87-0.069-4.277-0.205l0.179 0.014c-0.67 0.034-1.456 0.053-2.246 0.053-13.367 0-25.448-5.508-34.097-14.379l-0.010-0.010c-8.54-8.449-13.829-20.17-13.829-33.127 0-0.234 0.002-0.467 0.005-0.7v0.035c0.195-12.111 3.594-23.388 9.384-33.072l-0.168 0.304c7.447-13.235 15.24-24.62 23.906-35.265l-0.354 0.449z" />
<glyph unicode="&#x27;" glyph-name="apostrophe" data-tags="apostrophe" horiz-adv-x="174" d="M39.424 606.72v55.296c1.077 17.46 5.306 33.677 12.123 48.454l-0.347-0.838c6.764 17.81 14.865 33.173 24.559 47.36l-0.495-0.768c9.564 13.59 20.363 25.365 32.493 35.613l0.275 0.227 45.568-28.16c-8.497-13.428-16.407-28.934-22.873-45.171l-0.679-1.933c-5.844-15.597-9.227-33.621-9.227-52.435 0-0.646 0.004-1.291 0.012-1.935l-0.001 0.098v-55.808z" />
<glyph unicode="&#x28;" glyph-name="open-parenthesis" data-tags="open-parenthesis" horiz-adv-x="293" d="M67.072 457.728c-0.123 4.194-0.194 9.128-0.194 14.078 0 115.954 38.546 222.906 103.524 308.74l-0.93-1.282h102.4c-18.835-24.771-34.871-53.163-46.79-83.62l-0.826-2.396c-13.093-32.167-24.587-70.412-32.565-109.931l-0.715-4.245c-7.814-36.556-12.289-78.555-12.289-121.6s4.475-85.044 12.985-125.558l-0.696 3.958c8.693-43.765 20.188-82.010 34.858-118.64l-1.578 4.464c12.904-33.040 28.931-61.587 48.302-87.487l-0.686 0.959h-102.4c-64.055 84.904-102.592 192.191-102.592 308.48 0 4.951 0.070 9.886 0.209 14.804l-0.016-0.724z" />
<glyph unicode="&#x29;" glyph-name="close-parenthesis" data-tags="close-parenthesis" horiz-adv-x="293" d="M226.304 457.728c0.132-4.341 0.207-9.448 0.207-14.572 0-115.962-38.551-222.92-103.537-308.757l0.93 1.281h-102.4c19.241 24.728 35.464 53.141 47.344 83.723l0.784 2.293c12.939 32.176 24.265 70.441 32.075 109.97l0.693 4.206c7.754 36.607 12.225 78.691 12.288 121.808v0.048c-0.089 42.999-4.559 84.902-12.987 125.353l0.699-4.009c-8.693 43.765-20.188 82.010-34.858 118.64l1.578-4.464c-13.296 33.069-30.002 61.621-50.228 87.269l0.564-0.741h102.4c65.265-85.046 104.588-192.978 104.588-310.095 0-4.203-0.051-8.394-0.151-12.573l0.012 0.62z" />
<glyph unicode="&#x2a;" glyph-name="asterisk" data-tags="asterisk" horiz-adv-x="404" d="M168.448 476.672l6.144 98.304-82.432-55.296-34.304 60.416 89.088 43.008-89.088 42.496 34.304 60.928 82.432-55.296-6.144 96.768h68.096l-6.656-96.768 82.432 55.296 34.304-60.928-90.624-42.496 88.576-43.008-32.256-60.416-82.432 55.296 6.656-98.304z" />
<glyph unicode="&#x2b;" glyph-name="add-sm" data-tags="add-sm" d="M563.2 665.6h-102.4v-153.6h-153.6v-102.4h153.6v-153.6h102.4v153.6h153.6v102.4h-153.6z" />
<glyph unicode="&#x2c;" glyph-name="comma" data-tags="comma" horiz-adv-x="193" d="M161.28 320l-3.072-28.16c-2.309-24.933-6.65-47.743-12.938-69.731l0.65 2.659c-6.144-22.528-12.8-42.496-19.456-60.928s-12.288-32.256-16.384-42.496h-70.144c0 9.728 6.144 23.552 10.24 41.472s8.704 37.888 12.8 60.416c3.406 19.509 5.967 42.942 7.116 66.746l0.052 1.35v28.672z" />
<glyph unicode="&#x2d;" glyph-name="minus-sm" data-tags="minus-sm" d="M347.648 512h328.704c22.339 0 40.448-18.109 40.448-40.448s-18.109-40.448-40.448-40.448h-328.704c-22.339 0-40.448 18.109-40.448 40.448s18.109 40.448 40.448 40.448z" />
<glyph unicode="&#x2e;" glyph-name="dot" data-tags="dot" horiz-adv-x="189" d="M106.496 241.664c-0.21-0.003-0.458-0.004-0.706-0.004-16.594 0-31.585 6.865-42.287 17.909l-0.015 0.015c-11.064 10.558-17.943 25.418-17.943 41.884 0 0.575 0.008 1.149 0.025 1.72l-0.002-0.084c-0.009 0.382-0.015 0.832-0.015 1.283 0 16.255 6.887 30.902 17.902 41.183l0.033 0.030c10.717 11.060 25.708 17.924 42.302 17.924 0.248 0 0.496-0.002 0.743-0.005h-0.038c33.464-0.275 60.587-27.040 61.438-60.337l0.002-0.079c-0.222-17.031-7.226-32.384-18.429-43.517l-0.003-0.003c-10.955-11.067-26.149-17.92-42.944-17.92-0.023 0-0.045 0-0.068 0h0.003z" />
<glyph unicode="&#x2f;" glyph-name="slash" data-tags="slash" horiz-adv-x="280" d="M270.336 794.112l-167.936-624.128h-93.696l168.448 624.128z" />
<glyph unicode="&#x30;" glyph-name="0" data-tags="0" horiz-adv-x="493" d="M246.784 237.056c-1.577-0.046-3.432-0.071-5.293-0.071-40.154 0-77.49 12.069-108.577 32.778l0.718-0.45c-32.299 23.242-57.203 54.904-71.71 91.794l-0.482 1.39c-15.996 39.768-25.276 85.876-25.276 134.151 0 4.139 0.068 8.261 0.204 12.367l-0.016-0.598c-0.413 5.964-0.648 12.926-0.648 19.942 0 66.84 21.347 128.694 57.594 179.117l-0.626-0.916c34.247 43.005 86.603 70.328 145.34 70.328 2.905 0 5.795-0.067 8.667-0.199l-0.407 0.015c1.476 0.039 3.213 0.062 4.955 0.062 39.788 0 76.851-11.667 107.955-31.767l-0.782 0.473c32.704-22.682 58.084-53.826 73.229-90.292l0.499-1.356c15.971-40.037 25.233-86.438 25.233-135.001 0-3.659-0.053-7.307-0.157-10.941l0.012 0.534c0.388-5.88 0.609-12.747 0.609-19.666 0-67.937-21.307-130.898-57.604-182.564l0.675 1.014c-34.15-43.020-86.442-70.363-145.12-70.363-3.163 0-6.307 0.079-9.431 0.236l0.439-0.018zM246.784 328.704c31.063 0.187 57.903 18.078 70.959 44.084l0.209 0.46c17.136 34.498 27.163 75.13 27.163 118.104 0 6.004-0.196 11.962-0.581 17.868l0.042-0.804c0.346 5.066 0.544 10.98 0.544 16.941 0 42.495-10.033 82.647-27.859 118.215l0.692-1.524c-13.251 26.424-40.128 44.244-71.168 44.244s-57.917-17.82-70.96-43.787l-0.208-0.457c-17.423-34.248-27.63-74.684-27.63-117.505 0-5.674 0.179-11.306 0.532-16.89l-0.039 0.763c-0.343-5.102-0.539-11.060-0.539-17.064 0-42.974 10.027-83.606 27.87-119.684l-0.707 1.58c13.52-26.458 40.488-44.31 71.648-44.544h0.032z" />
<glyph unicode="&#x31;" glyph-name="1" data-tags="1" horiz-adv-x="351" d="M268.8 768v-519.68h-110.080v417.28h-5.12l-117.248-75.264v97.792l129.024 79.872z" />
<glyph unicode="&#x32;" glyph-name="2" data-tags="2" horiz-adv-x="452" d="M42.496 248.32v79.36l185.344 172.032c19.586 18.112 37.372 37.521 53.464 58.307l0.808 1.085c11.475 15.225 18.392 34.449 18.432 55.287v0.009c0.034 0.81 0.053 1.762 0.053 2.717 0 20.362-8.676 38.698-22.534 51.512l-0.047 0.043c-14.556 12.445-33.602 20.019-54.417 20.019-1.030 0-2.055-0.019-3.075-0.055l0.148 0.004c-0.608 0.017-1.324 0.027-2.043 0.027-21.626 0-41.191-8.821-55.295-23.061l-0.006-0.006c-13.334-14.164-21.529-33.298-21.529-54.346 0-0.694 0.009-1.386 0.027-2.076l-0.002 0.102h-102.4c-0.029 1.155-0.045 2.516-0.045 3.88 0 31.232 8.578 60.461 23.507 85.459l-0.422-0.763c15.063 24.989 36.283 44.895 61.605 57.965l0.859 0.403c26.856 12.964 58.401 20.539 91.715 20.539 1.777 0 3.548-0.022 5.314-0.064l-0.262 0.005c1.774 0.051 3.861 0.079 5.955 0.079 33.080 0 64.48-7.195 92.719-20.107l-1.394 0.571c26.662-12.27 48.634-30.792 64.684-53.758l0.34-0.514c15.763-22.449 25.3-50.274 25.599-80.31l0.001-0.074c-0.951-21.719-6.136-42.003-14.744-60.361l0.408 0.969c-10.991-24.341-24.717-45.28-41.174-63.732l0.214 0.244c-26.322-30.123-53.584-57.547-82.503-83.14l-0.953-0.828-75.776-73.728v-3.584h218.624v-90.112z" />
<glyph unicode="&#x33;" glyph-name="3" data-tags="3" horiz-adv-x="473" d="M235.008 241.152c-1.768-0.046-3.849-0.073-5.937-0.073-34.884 0-68.045 7.375-98.009 20.652l1.546-0.611c-28.479 11.918-52.153 30.494-69.84 53.853l-0.304 0.419c-16.231 22.287-26.005 50.184-26.112 80.359v0.025h111.616c0.885-19.239 10.956-35.951 25.9-45.947l0.212-0.133c16.050-10.944 35.87-17.475 57.215-17.475 1.306 0 2.606 0.024 3.9 0.073l-0.187-0.006c1.239-0.058 2.692-0.091 4.152-0.091 21.838 0 41.959 7.35 58.024 19.712l-0.224-0.166c15.426 11.909 25.265 30.405 25.265 51.2s-9.839 39.291-25.115 51.089l-0.15 0.111c-17.765 12.362-39.797 19.751-63.554 19.751-2.859 0-5.694-0.107-8.499-0.317l0.374 0.022h-51.2v80.896h51.2c1.143-0.049 2.483-0.077 3.83-0.077 21.774 0 41.831 7.347 57.83 19.697l-0.22-0.163c14.437 11.053 23.655 28.296 23.655 47.692 0 1.234-0.037 2.46-0.111 3.676l0.008-0.167c0.027 0.669 0.042 1.455 0.042 2.245 0 18.046-7.912 34.244-20.456 45.315l-0.065 0.057c-13.47 11.464-31.069 18.437-50.297 18.437-0.317 0-0.635-0.002-0.951-0.006h0.048c-0.707 0.019-1.539 0.030-2.374 0.030-20.841 0-40.11-6.731-55.751-18.137l0.27 0.188c-16.171-10.677-26.782-28.638-27.135-49.099l-0.001-0.053h-105.984c0.096 29.959 9.673 57.663 25.885 80.29l-0.285-0.418c17.894 21.971 40.549 39.372 66.447 50.754l1.137 0.446c26.854 12.001 58.196 18.99 91.171 18.99 1.608 0 3.212-0.017 4.813-0.050l-0.239 0.004c1.753 0.053 3.814 0.083 5.883 0.083 32.058 0 62.434-7.204 89.596-20.081l-1.271 0.542c25.705-11.514 46.963-28.993 62.665-50.748l0.311-0.452c14.108-20.171 22.544-45.214 22.544-72.228 0-0.708-0.006-1.414-0.017-2.118l0.001 0.106c0.023-0.81 0.036-1.763 0.036-2.719 0-26.846-10.331-51.279-27.234-69.541l0.062 0.067c-18.551-19.197-42.995-32.593-70.411-37.269l-0.757-0.107v-4.096c34.328-2.323 64.854-16.939 87.563-39.435l-0.011 0.011c18.765-20.355 30.27-47.65 30.27-77.633 0-1.327-0.023-2.649-0.067-3.966l0.005 0.191c0.002-0.253 0.003-0.551 0.003-0.85 0-29.429-9.814-56.566-26.348-78.317l0.233 0.319c-18.205-23.897-42.024-42.62-69.536-54.359l-1.12-0.425c-29.292-12.653-63.399-20.011-99.224-20.011-1.657 0-3.31 0.016-4.959 0.047l0.247-0.004z" />
<glyph unicode="&#x34;" glyph-name="4" data-tags="4" horiz-adv-x="486" d="M34.304 339.968v87.040l217.6 340.992h138.24v-341.504h64.512v-88.576h-64.512v-91.648h-105.472v93.696zM286.72 428.544v221.184h-4.096l-137.216-217.088v-4.096z" />
<glyph unicode="&#x35;" glyph-name="5" data-tags="5" horiz-adv-x="462" d="M232.448 241.152c-1.268-0.026-2.763-0.041-4.261-0.041-33.181 0-64.64 7.375-92.827 20.575l1.343-0.565c-27.262 12.58-49.849 31.228-66.739 54.307l-0.333 0.477c-15.868 22.233-25.432 49.919-25.6 79.831v0.041h109.568c0.169-20.828 10.105-39.302 25.446-51.086l0.154-0.114c14.791-11.813 33.764-18.955 54.404-18.955 0.494 0 0.986 0.004 1.478 0.012l-0.074-0.001c0.752-0.023 1.636-0.037 2.524-0.037 24.040 0 45.789 9.803 61.47 25.63l0.006 0.007c15.273 16.184 24.66 38.066 24.66 62.141 0 1.374-0.031 2.741-0.091 4.1l0.007-0.193c0.042 1.031 0.065 2.241 0.065 3.456 0 25.738-10.609 48.997-27.693 65.644l-0.020 0.019c-15.69 15.854-37.454 25.671-61.511 25.671-1.236 0-2.465-0.026-3.688-0.077l0.175 0.006c-0.008 0-0.017 0-0.026 0-16.096 0-31.399-3.391-45.235-9.499l0.717 0.283c-13.171-5.935-24.167-14.633-32.628-25.415l-0.14-0.185-98.304 17.92 24.576 272.896h318.976v-88.064h-227.84l-13.824-131.072h3.072c10.525 14.224 24.555 25.291 40.833 32.022l0.639 0.234c17.513 8.102 38.008 12.828 59.607 12.828 1.005 0 2.007-0.010 3.007-0.031l-0.15 0.002c0.931 0.020 2.028 0.031 3.128 0.031 29.812 0 57.71-8.193 81.566-22.449l-0.727 0.403c24.378-14.637 44-34.915 57.445-59.099l0.411-0.805c13.56-24.582 21.539-53.884 21.539-85.050 0-1.24-0.013-2.477-0.038-3.711l0.003 0.185c0.022-1.036 0.034-2.256 0.034-3.48 0-33.271-9.145-64.405-25.059-91.027l0.449 0.811c-16.525-27.269-39.625-49.056-67.161-63.551l-0.935-0.449c-29.278-15.489-63.998-24.582-100.842-24.582-0.548 0-1.095 0.002-1.642 0.006h0.084z" />
<glyph unicode="&#x36;" glyph-name="6" data-tags="6" horiz-adv-x="473" d="M242.176 241.152c-27.972 0.88-54.422 6.249-79.028 15.408l1.716-0.56c-26.161 9.495-48.433 24.189-66.508 42.954l-0.052 0.054c-20.816 21.377-36.954 47.419-46.689 76.401l-0.415 1.423c-10.832 32.663-17.081 70.264-17.081 109.324 0 4.047 0.067 8.078 0.2 12.092l-0.015-0.584c-0.078 2.924-0.123 6.366-0.123 9.819 0 50.787 9.628 99.326 27.16 143.89l-0.925-2.669c15.442 39.37 40.838 72.016 73.138 95.841l0.59 0.415c30.101 21.174 67.519 33.839 107.895 33.839 1.488 0 2.973-0.017 4.453-0.051l-0.22 0.004c1.041 0.020 2.268 0.031 3.498 0.031 32.1 0 62.431-7.574 89.303-21.034l-1.153 0.523c26.090-13.389 47.724-32.075 64.153-54.775l0.359-0.521c15.621-22.213 26.231-49.026 29.62-78.044l0.076-0.804h-109.056c-3.222 18.192-12.872 33.703-26.471 44.427l-0.153 0.117c-13.104 9.654-29.567 15.451-47.384 15.451-1.342 0-2.677-0.033-4.003-0.098l0.187 0.007c-0.937 0.037-2.038 0.059-3.143 0.059-31.969 0-59.765-17.865-73.949-44.157l-0.22-0.446c-17.213-32.671-27.315-71.396-27.315-112.481 0-3.297 0.065-6.579 0.194-9.845l-0.015 0.47h3.584c11.488 23.028 29.041 41.568 50.585 53.946l0.615 0.326c22.198 12.253 48.66 19.463 76.807 19.463 0.538 0 1.075-0.003 1.612-0.008l-0.082 0.001c1.521 0.054 3.308 0.085 5.102 0.085 29.33 0 56.739-8.221 80.051-22.483l-0.673 0.383c24.445-13.751 44.225-33.203 57.976-56.622l0.392-0.722c12.93-24.026 20.528-52.577 20.528-82.903 0-1.455-0.017-2.906-0.052-4.352l0.004 0.215c0.035-1.304 0.054-2.838 0.054-4.377 0-33.144-9.155-64.15-25.074-90.626l0.444 0.796c-16.717-27.428-39.972-49.37-67.664-64.055l-0.944-0.457c-29.197-15.802-63.916-25.091-100.804-25.091-0.381 0-0.762 0.001-1.143 0.003h0.059zM242.176 327.68c0.951-0.038 2.066-0.060 3.187-0.060 24.347 0 46.303 10.238 61.799 26.643l0.038 0.041c15.562 16.021 25.156 37.912 25.156 62.044 0 1.228-0.025 2.45-0.074 3.667l0.006-0.174c0.049 1.101 0.077 2.393 0.077 3.691 0 24.070-9.601 45.898-25.182 61.862l0.017-0.018c-15.286 16.439-37.034 26.691-61.177 26.691-1.173 0-2.34-0.024-3.501-0.072l0.166 0.005c-0.412 0.007-0.899 0.011-1.387 0.011-16.324 0-31.58-4.575-44.556-12.512l0.374 0.213c-13.311-8.27-24.053-19.504-31.51-32.824l-0.234-0.456c-7.677-13.241-12.231-29.123-12.288-46.063v-0.017c0-0.097-0.001-0.212-0.001-0.326 0-16.961 4.363-32.902 12.029-46.763l-0.252 0.497c7.695-13.614 18.439-24.685 31.352-32.547l0.392-0.221c12.739-8.292 28.312-13.247 45.039-13.312h0.017z" />
<glyph unicode="&#x37;" glyph-name="7" data-tags="7" horiz-adv-x="426" d="M62.976 248.32l216.064 428.032v3.584h-251.904v88.064h366.080v-89.6l-216.576-430.080z" />
<glyph unicode="&#x38;" glyph-name="8" data-tags="8" horiz-adv-x="474" d="M236.544 241.152c-0.559-0.004-1.219-0.007-1.88-0.007-36.219 0-70.768 7.15-102.313 20.115l1.793-0.652c-28.708 11.117-52.825 28.649-71.458 50.927l-0.222 0.273c-15.963 20.228-25.605 46.089-25.605 74.202 0 0.374 0.002 0.747 0.005 1.119v-0.057c-0.063 1.438-0.098 3.124-0.098 4.819 0 20.759 5.348 40.27 14.742 57.228l-0.308-0.606c9.91 18.487 23.558 33.772 40.033 45.293l0.415 0.275c16.166 11.689 35.547 19.99 56.56 23.446l0.784 0.106v3.584c-28.276 5.286-52.323 20.464-68.931 41.733l-0.189 0.251c-15.617 20.096-25.037 45.684-25.037 73.472s9.42 53.376 25.241 73.744l-0.204-0.272c16.532 22.449 38.509 39.985 64.019 50.821l1.005 0.379c26.208 11.363 56.731 17.973 88.798 17.973 1.722 0 3.44-0.019 5.153-0.057l-0.255 0.004c1.574 0.039 3.427 0.061 5.286 0.061 32.11 0 62.675-6.613 90.409-18.55l-1.487 0.569c26.419-11.4 48.352-28.895 64.729-50.788l0.295-0.412c15.014-19.384 24.067-44.044 24.067-70.818 0-0.303-0.001-0.606-0.003-0.909v0.046c-0.585-28.868-11.335-55.117-28.804-75.421l0.132 0.157c-16.53-20.541-39.771-35.091-66.354-40.33l-0.718-0.118v-3.584c21.622-3.564 40.832-11.865 57.211-23.815l-0.379 0.263c16.938-11.917 30.717-27.169 40.61-44.885l0.35-0.683c9.655-17.144 15.343-37.637 15.343-59.458 0-28.68-9.825-55.065-26.294-75.973l0.199 0.262c-18.943-22.666-43.255-40.225-71.011-50.805l-1.181-0.395c-30.723-13.883-66.572-22.137-104.306-22.527l-0.142-0.001zM236.544 322.048c1.307-0.067 2.839-0.105 4.379-0.105 22.587 0 43.266 8.171 59.242 21.718l-0.133-0.11c14.74 12.29 24.055 30.656 24.064 51.199v0.001c0.018 0.592 0.028 1.289 0.028 1.987 0 21.458-9.497 40.698-24.517 53.746l-0.087 0.074c-15.73 13.728-36.444 22.099-59.113 22.099-1.358 0-2.71-0.030-4.054-0.090l0.191 0.007c-1.061 0.045-2.306 0.071-3.556 0.071-22.601 0-43.248-8.368-59.011-22.175l0.103 0.089c-15.399-12.954-25.117-32.235-25.117-53.784 0-0.712 0.011-1.421 0.032-2.127l-0.002 0.104c0.22-20.604 9.697-38.95 24.461-51.108l0.115-0.092c15.709-13.431 36.264-21.604 58.727-21.604 1.494 0 2.98 0.036 4.457 0.108l-0.208-0.008zM236.544 555.008c0.823-0.032 1.789-0.050 2.76-0.050 19.883 0 37.99 7.607 51.568 20.068l-0.056-0.051c13.266 11.867 21.576 29.038 21.576 48.149 0 1.073-0.026 2.14-0.078 3.201l0.006-0.149c0.060 1.043 0.095 2.264 0.095 3.492 0 18.88-8.11 35.865-21.036 47.662l-0.050 0.045c-13.642 11.823-31.568 19.027-51.176 19.027-1.269 0-2.531-0.030-3.785-0.090l0.177 0.007c-0.985 0.045-2.141 0.070-3.302 0.070-19.54 0-37.398-7.201-51.064-19.094l0.094 0.080c-12.977-11.843-21.087-28.828-21.087-47.708 0-1.228 0.034-2.449 0.102-3.66l-0.008 0.168c-0.046-0.914-0.072-1.986-0.072-3.063 0-19.009 8.093-36.127 21.021-48.098l0.043-0.039c13.523-12.411 31.629-20.018 51.512-20.018 0.97 0 1.937 0.018 2.898 0.054l-0.139-0.004z" />
<glyph unicode="&#x39;" glyph-name="9" data-tags="9" horiz-adv-x="473" d="M230.912 778.752c27.413-0.052 53.627-5.118 77.796-14.329l-1.508 0.505c26.333-9.498 48.771-24.191 67.033-42.968l0.039-0.040c20.366-21.889 36.291-48.212 46.147-77.333l0.445-1.515c11.091-33.646 17.488-72.373 17.488-112.595 0-2.716-0.029-5.426-0.087-8.128l0.007 0.403c0.123-3.644 0.194-7.927 0.194-12.226 0-50.89-9.847-99.481-27.74-143.97l0.922 2.596c-15.307-39.436-40.734-72.115-73.131-95.839l-0.597-0.417c-29.834-21.18-66.995-33.859-107.117-33.859-1.762 0-3.518 0.024-5.268 0.073l0.258-0.006c-0.847-0.013-1.847-0.020-2.849-0.020-32.493 0-63.219 7.567-90.511 21.035l1.2-0.535c-26.122 13.063-47.666 31.82-63.638 54.748l-0.362 0.548c-15.767 22.129-26.266 49.030-29.13 78.172l-0.054 0.676h109.568c3.592-18.071 13.148-33.475 26.491-44.438l0.133-0.106c13.214-9.647 29.779-15.435 47.696-15.435 1.232 0 2.458 0.027 3.677 0.082l-0.173-0.006c0.952-0.038 2.070-0.060 3.193-0.060 33.042 0 61.707 18.743 75.943 46.176l0.224 0.475c16.923 32.361 26.851 70.686 26.851 111.33 0 3.702-0.082 7.385-0.245 11.047l0.018-0.521h-6.144c-11.567-22.975-29.099-41.494-50.585-53.943l-0.615-0.329c-22.489-12.254-49.255-19.46-77.703-19.46-0.402 0-0.805 0.001-1.206 0.004h0.062c-0.7-0.011-1.526-0.017-2.353-0.017-29.492 0-57.118 7.992-80.829 21.929l0.75-0.407c-24.731 15.182-44.557 36.156-57.949 61.099l-0.419 0.853c-12.942 23.541-20.556 51.591-20.556 81.419 0 1.797 0.028 3.587 0.082 5.37l-0.006-0.261c-0.057 1.67-0.090 3.633-0.090 5.603 0 32.674 8.975 63.252 24.595 89.402l-0.441-0.798c16.628 26.727 39.718 48.010 67.141 62.021l0.955 0.443c28.202 14.883 61.637 23.618 97.111 23.618 1.86 0 3.714-0.024 5.562-0.072l-0.273 0.006zM230.912 691.712c-0.56 0.013-1.22 0.021-1.882 0.021-24.012 0-45.683-10.018-61.064-26.101l-0.030-0.032c-15.562-16.538-25.125-38.875-25.125-63.446 0-0.915 0.013-1.827 0.040-2.735l-0.003 0.133c-0.016-0.637-0.025-1.388-0.025-2.14 0-24.301 9.353-46.417 24.656-62.945l-0.055 0.061c15.33-16.115 36.934-26.138 60.88-26.138 0.737 0 1.472 0.009 2.205 0.028l-0.108-0.002c0.412-0.007 0.899-0.011 1.387-0.011 16.324 0 31.58 4.575 44.556 12.512l-0.374-0.213c26.582 16.36 44.038 45.297 44.038 78.311 0 0.369-0.002 0.737-0.007 1.105l0.001-0.056c-0.226 17.014-4.952 32.877-13.038 46.513l0.238-0.433c-7.498 13.77-18.079 25.007-30.866 33.065l-0.366 0.215c-12.503 7.718-27.658 12.291-43.881 12.291-0.233 0-0.466-0.001-0.699-0.003h0.036z" />
<glyph unicode="&#x3a;" glyph-name="colon" data-tags="colon" horiz-adv-x="214" d="M106.496 515.584c-0.467-0.014-1.016-0.022-1.566-0.022-16.328 0-31.048 6.886-41.414 17.912l-0.028 0.030c-11.106 10.961-17.985 26.181-17.985 43.008s6.879 32.047 17.978 43.002l0.007 0.006c10.717 11.060 25.708 17.924 42.302 17.924 0.248 0 0.496-0.002 0.743-0.005h-0.038c0.019 0 0.042 0 0.064 0 16.795 0 31.989-6.853 42.939-17.915l0.005-0.005c11.365-10.839 18.432-26.098 18.432-43.008s-7.067-32.169-18.408-42.986l-0.024-0.022c-10.637-11.058-25.56-17.927-42.088-17.927-0.324 0-0.647 0.003-0.969 0.008l0.049-0.001zM106.496 241.664c-0.21-0.003-0.458-0.004-0.706-0.004-16.594 0-31.585 6.865-42.287 17.909l-0.015 0.015c-11.064 10.558-17.943 25.418-17.943 41.884 0 0.575 0.008 1.149 0.025 1.72l-0.002-0.084c-0.009 0.382-0.015 0.832-0.015 1.283 0 16.255 6.887 30.902 17.902 41.183l0.033 0.030c10.717 11.060 25.708 17.924 42.302 17.924 0.248 0 0.496-0.002 0.743-0.005h-0.038c33.464-0.275 60.587-27.040 61.438-60.337l0.002-0.079c-0.222-17.031-7.226-32.384-18.429-43.517l-0.003-0.003c-10.955-11.067-26.149-17.92-42.944-17.92-0.023 0-0.045 0-0.068 0h0.003z" />
<glyph unicode="&#x3b;" glyph-name="semi-colon" data-tags="semi-colon" horiz-adv-x="216" d="M161.28 320l-3.072-28.16c-2.309-24.933-6.65-47.743-12.938-69.731l0.65 2.659c-6.144-22.528-12.8-42.496-19.456-60.928s-12.288-32.256-16.384-42.496h-70.144c0 9.728 6.144 23.552 10.24 41.472s8.704 37.888 12.8 60.416c3.406 19.509 5.967 42.942 7.116 66.746l0.052 1.35v28.672zM115.712 515.584c-0.467-0.014-1.016-0.022-1.566-0.022-16.328 0-31.048 6.886-41.414 17.912l-0.028 0.030c-11.106 10.961-17.985 26.181-17.985 43.008s6.879 32.047 17.978 43.002l0.007 0.006c10.878 11.077 26.013 17.943 42.752 17.943s31.874-6.865 42.743-17.934l0.009-0.009c11.64-10.705 18.907-26.008 18.907-43.008s-7.268-32.303-18.866-42.97l-0.042-0.038c-10.311-11.048-24.957-17.935-41.213-17.935-0.451 0-0.901 0.005-1.35 0.016l0.067-0.001z" />
<glyph unicode="&#x3c;" glyph-name="less-than" data-tags="less-than" horiz-adv-x="487" d="M64.512 409.6v92.16l358.4 157.696v-102.4l-242.176-96.256v-4.608l242.176-97.792v-102.4z" />
<glyph unicode="&#x3d;" glyph-name="equal" data-tags="equal" horiz-adv-x="487" d="M67.584 496.64v90.112h351.744v-90.112zM67.584 327.168v90.624h351.744v-90.624z" />
<glyph unicode="&#x3e;" glyph-name="greater-than" data-tags="greater-than" horiz-adv-x="487" d="M422.912 409.6l-358.4-153.6v102.4l242.688 96.256v6.144l-242.688 95.744v102.4l358.4-157.696z" />
<glyph unicode="&#x3f;" glyph-name="question-mark" data-tags="question-mark" horiz-adv-x="403" d="M136.192 404.992v8.704c-0.014 1.044-0.022 2.277-0.022 3.512 0 23.842 2.996 46.985 8.631 69.072l-0.417-1.928c4.301 16.484 12.11 30.769 22.62 42.601l-0.092-0.105c10.996 11.345 23.444 21.185 37.068 29.247l0.82 0.449c14.971 9.535 27.913 20.361 39.309 32.643l0.115 0.125c10.161 10.929 16.396 25.629 16.396 41.784 0 0.43-0.004 0.86-0.013 1.288l0.001-0.064c0.042 0.773 0.065 1.678 0.065 2.589 0 15.805-7.161 29.937-18.416 39.329l-0.082 0.066c-11.206 9.872-26.007 15.898-42.216 15.898-0.639 0-1.275-0.009-1.909-0.028l0.093 0.002c-0.14 0.001-0.306 0.002-0.471 0.002-16.803 0-32.205-5.996-44.185-15.964l0.112 0.091c-12.906-11.408-21.002-28.003-21.002-46.488 0-0.396 0.004-0.792 0.011-1.187l-0.001 0.059h-102.4c-0.094 2.005-0.147 4.355-0.147 6.717 0 28.669 7.854 55.503 21.528 78.468l-0.389-0.706c15.246 22.39 36.080 39.935 60.529 50.837l0.911 0.363c23.781 10.057 51.432 15.901 80.449 15.901 1.238 0 2.473-0.011 3.705-0.032l-0.186 0.003c1.691 0.046 3.682 0.073 5.679 0.073 30.257 0 59.101-6.047 85.391-16.999l-1.469 0.543c25.113-10.372 45.911-26.892 61.161-47.729l0.279-0.399c13.817-20.599 22.051-45.951 22.051-73.226 0-1.077-0.013-2.15-0.038-3.221l0.003 0.159c0.055-1.385 0.086-3.010 0.086-4.643 0-25.94-7.874-50.041-21.361-70.043l0.283 0.446c-15.387-20.837-34.489-37.979-56.458-50.726l-0.886-0.474c-17.56-9.987-32.233-23.026-43.767-38.539l-0.265-0.373c-9.059-15.468-14.408-34.061-14.408-53.903 0-1.39 0.026-2.774 0.078-4.152l-0.006 0.199v-8.704zM187.392 241.664c-0.146-0.001-0.319-0.002-0.492-0.002-16.661 0-31.719 6.86-42.505 17.91l-0.012 0.012c-11.064 10.558-17.943 25.418-17.943 41.884 0 0.575 0.008 1.149 0.025 1.72l-0.002-0.084c-0.009 0.382-0.015 0.832-0.015 1.283 0 16.255 6.887 30.902 17.902 41.183l0.033 0.030c10.797 11.062 25.856 17.922 42.516 17.922 0.173 0 0.345-0.001 0.518-0.002h-0.026c33.464-0.275 60.587-27.040 61.438-60.337l0.002-0.079c-0.222-17.031-7.226-32.384-18.429-43.517l-0.003-0.003c-10.956-11.073-26.154-17.93-42.953-17.93-0.379 0-0.758 0.003-1.135 0.010l0.057-0.001z" />
<glyph unicode="&#x40;" glyph-name="at" data-tags="at" horiz-adv-x="739" d="M384.512 98.304c-3.64-0.119-7.919-0.187-12.214-0.187-62.573 0-121.776 14.428-174.464 40.138l2.357-1.038c-49.898 25.229-89.876 63.89-116.032 111.251l-0.704 1.389c-25.551 49.168-40.536 107.355-40.536 169.043 0 2.851 0.032 5.695 0.096 8.531l-0.007-0.422c-0.039 2.045-0.062 4.458-0.062 6.875 0 62.852 15.161 122.163 42.025 174.476l-1.003-2.151c26.888 50.693 66.991 91.289 115.765 118.039l1.483 0.745c51.375 27.18 112.3 43.136 176.952 43.136 3.491 0 6.971-0.047 10.44-0.139l-0.512 0.011c3.379 0.114 7.351 0.179 11.338 0.179 59.798 0 116.176-14.645 165.743-40.544l-1.977 0.94c46.969-24.679 84.705-61.429 109.9-106.183l0.692-1.337c22.723-43.076 36.060-94.142 36.060-148.324 0-4.196-0.080-8.374-0.239-12.531l0.018 0.599c0.041-2.046 0.064-4.459 0.064-6.877 0-37.144-5.448-73.015-15.589-106.858l0.677 2.631c-9.634-30.981-27.454-57.075-50.938-76.588l-0.262-0.212c-23.906-19.352-54.549-31.239-87.953-31.743l-0.111-0.001c-3.272-0.421-7.056-0.661-10.897-0.661-18.866 0-36.378 5.798-50.851 15.709l0.308-0.199c-12.953 10.039-21.827 24.804-24.030 41.666l-0.034 0.318h-3.072c-5.117-11.644-13.419-21.098-23.803-27.498l-0.261-0.15c-12.418-8.602-26.984-15.156-42.672-18.779l-0.848-0.165c-12.886-3.491-27.68-5.497-42.943-5.497-3.986 0-7.94 0.137-11.858 0.406l0.529-0.029c-27.708 1.451-53.145 10.030-74.856 23.921l0.616-0.369c-23.422 15.092-41.956 35.926-53.885 60.555l-0.387 0.885c-13.024 27.664-20.626 60.085-20.626 94.281 0 2.855 0.053 5.698 0.158 8.527l-0.012-0.408c-0.070 2.006-0.111 4.362-0.111 6.728 0 33.381 7.986 64.896 22.152 92.739l-0.537-1.164c24.693 44.135 68.251 75.185 119.466 82.334l0.854 0.098c8.158 1.468 17.549 2.307 27.136 2.307s18.977-0.839 28.103-2.448l-0.967 0.141c16.277-2.591 30.911-7.419 44.379-14.217l-0.859 0.393c9.572-4.406 17.189-11.693 21.895-20.737l0.121-0.255h3.072v28.16h79.36v-249.344c0-24.576 10.24-37.376 28.672-37.376s31.232 11.776 39.936 35.328c8.71 27.883 13.728 59.944 13.728 93.177 0 5.766-0.151 11.496-0.449 17.187l0.033-0.796c0.069 2.16 0.109 4.701 0.109 7.25 0 34.389-7.198 67.098-20.171 96.7l0.606-1.55c-11.865 27.017-29.259 49.663-50.881 67.331l-0.319 0.253c-21.438 16.652-46.752 29.51-74.271 37.026l-1.505 0.35c-26.289 7.477-56.482 11.776-87.678 11.776-0.136 0-0.271 0-0.407 0h0.021c-2.761 0.099-6.005 0.156-9.262 0.156-48.215 0-93.537-12.388-132.957-34.154l1.419 0.718c-36.774-21.523-65.893-52.615-84.433-89.895l-0.559-1.241c-17.483-36.779-27.692-79.92-27.692-125.446 0-1.798 0.016-3.593 0.048-5.383l-0.004 0.269c-0.349-4.908-0.547-10.636-0.547-16.409 0-65.208 25.343-124.496 66.717-168.553l-0.122 0.131c46.014-40.123 106.592-64.587 172.884-64.587 6.186 0 12.321 0.213 18.401 0.632l-0.821-0.045c0.103 0 0.226 0 0.348 0 29.612 0 58.484 3.17 86.295 9.19l-2.675-0.485c23.382 3.992 43.714 9.147 63.402 15.711l-2.986-0.863 25.088-73.728c-12.421-6.758-26.864-12.689-41.98-17.030l-1.54-0.378c-16.958-5.017-37.739-9.49-58.986-12.514l-2.454-0.286c-15.529-1.881-33.509-2.954-51.74-2.954-6.652 0-13.272 0.143-19.854 0.426l0.939-0.032zM372.736 328.704c2.527-0.307 5.453-0.482 8.42-0.482 22.973 0 43.492 10.507 57.013 26.977l0.103 0.129c11.538 19.488 18.355 42.952 18.355 68.009 0 3.815-0.158 7.593-0.468 11.329l0.033-0.489c0.129 2.073 0.202 4.496 0.202 6.936 0 23.422-6.75 45.268-18.411 63.698l0.289-0.489c-13.866 15.777-34.088 25.68-56.623 25.68-3.323 0-6.595-0.215-9.804-0.633l0.378 0.040c-1.47 0.094-3.187 0.148-4.917 0.148-23.727 0-45.099-10.087-60.059-26.208l-0.048-0.052c-14.701-18.11-23.603-41.445-23.603-66.859 0-1.155 0.018-2.306 0.055-3.453l-0.004 0.167c0.184-18.379 3.357-35.957 9.053-52.354l-0.349 1.154c5.405-15.943 15.204-29.214 27.952-38.763l0.208-0.149c12.959-9.1 29.061-14.542 46.435-14.542 2.037 0 4.057 0.075 6.056 0.222l-0.267-0.016z" />
<glyph unicode="&#x41;" glyph-name="A-caps" data-tags="A-caps" horiz-adv-x="536" d="M135.168 248.32h-118.272l180.224 519.68h141.824l179.712-521.728h-117.76l-38.912 118.784h-187.904zM201.728 453.12h132.608l-64 197.632h-4.096z" />
<glyph unicode="&#x42;" glyph-name="B-caps" data-tags="B-caps" horiz-adv-x="474" d="M45.056 248.32v519.68h210.944c4.236 0.332 9.173 0.521 14.153 0.521 43.501 0 83.633-14.429 115.87-38.761l-0.487 0.352c26.702-22.228 43.574-55.477 43.574-92.665 0-1.263-0.019-2.521-0.058-3.774l0.004 0.183c-0.113-27.467-11.022-52.364-28.701-70.687l0.029 0.031c-17.734-18.482-40.805-31.716-66.733-37.225l-0.851-0.151v-5.12c20.738-1.051 39.839-7.196 56.344-17.198l-0.536 0.302c17.861-10.623 32.263-25.353 42.196-42.942l0.3-0.578c10.33-18.138 16.42-39.852 16.42-62.989 0-1.076-0.013-2.148-0.039-3.218l0.003 0.158c0.019-0.835 0.029-1.82 0.029-2.806 0-26.474-7.64-51.163-20.835-71.984l0.326 0.551c-14.822-22.42-35.347-39.984-59.535-50.846l-0.881-0.354c-27.28-12.027-59.088-19.028-92.531-19.028-2.21 0-4.413 0.031-6.608 0.091l0.323-0.007zM153.6 551.424h83.456c0.896-0.033 1.949-0.051 3.007-0.051 20.134 0 38.69 6.757 53.524 18.126l-0.21-0.155c13.881 10.875 22.719 27.639 22.719 46.467 0 1.666-0.069 3.315-0.205 4.946l0.014-0.213c0.013 0.461 0.021 1.004 0.021 1.548 0 17.366-7.72 32.929-19.915 43.445l-0.074 0.063c-14.106 10.662-31.939 17.077-51.271 17.077-1.957 0-3.898-0.066-5.822-0.195l0.261 0.014h-85.504zM153.6 338.432h91.648c1.958-0.134 4.245-0.21 6.549-0.21 22.99 0 44.211 7.577 61.302 20.369l-0.267-0.191c12.893 10.964 21.018 27.198 21.018 45.331 0 0.624-0.010 1.245-0.029 1.864l0.002-0.090c-0.027 20.336-8.898 38.594-22.972 51.14l-0.068 0.060c-15.833 12.826-36.222 20.591-58.426 20.591-1.601 0-3.192-0.040-4.772-0.12l0.222 0.009h-94.208z" />
<glyph unicode="&#x43;" glyph-name="C-caps" data-tags="C-caps" horiz-adv-x="539" d="M505.344 587.264h-111.616c-2.806 27.181-15.868 50.868-35.192 67.47l-0.136 0.114c-19.351 15.405-44.149 24.717-71.123 24.717-1.997 0-3.982-0.051-5.954-0.152l0.277 0.011c-1.195 0.043-2.6 0.067-4.010 0.067-37.586 0-71.13-17.308-93.095-44.388l-0.175-0.223c-22.956-31.59-36.723-71.149-36.723-113.924 0-4.232 0.135-8.432 0.4-12.596l-0.029 0.569c-0.3-4.001-0.471-8.666-0.471-13.372 0-42.592 14.018-81.909 37.691-113.591l-0.356 0.498c21.95-26.691 54.975-43.581 91.946-43.581 1.336 0 2.666 0.022 3.991 0.066l-0.193-0.005c1.151-0.039 2.503-0.062 3.861-0.062 26.654 0 51.283 8.667 71.224 23.336l-0.333-0.234c20.013 15.591 33.987 38.116 38.317 63.912l0.083 0.6h111.616c-4.428-34.078-16.623-64.645-34.748-90.79l0.444 0.678c-19.722-28.589-45.525-51.607-75.653-67.543l-1.147-0.553c-31.451-16.833-68.8-26.721-108.459-26.721-2.37 0-4.733 0.035-7.086 0.105l0.345-0.008c-1.464-0.031-3.191-0.049-4.921-0.049-44.252 0-85.795 11.599-121.754 31.923l1.235-0.642c-36.969 22.051-66.463 53.188-85.933 90.399l-0.595 1.249c-19.485 39.213-30.887 85.4-30.887 134.25 0 3.564 0.061 7.113 0.181 10.647l-0.014-0.514c-0.103 2.958-0.162 6.433-0.162 9.922 0 49.378 11.788 96.004 32.702 137.215l-0.796-1.729c19.87 38.151 49 69.087 84.491 90.567l1.013 0.569c34.457 19.671 75.722 31.268 119.696 31.268 1.48 0 2.956-0.013 4.429-0.039l-0.222 0.003c1.365 0.026 2.975 0.041 4.589 0.041 37.638 0 73.378-8.122 105.564-22.71l-1.609 0.653c32.94-14.399 60.24-36.439 80.516-63.971l0.38-0.541c20.853-28.798 34.691-63.944 38.334-102.064l0.066-0.848z" />
<glyph unicode="&#x44;" glyph-name="D-caps" data-tags="D-caps" horiz-adv-x="521" d="M229.888 248.32h-184.832v519.68h186.368c2.010 0.052 4.377 0.081 6.75 0.081 47.093 0 91.482-11.581 130.472-32.051l-1.542 0.738c37.359-20.293 67.259-50.193 86.992-86.429l0.56-1.123c19.443-38.383 30.832-83.682 30.832-131.641 0-2.861-0.041-5.712-0.121-8.553l0.009 0.418c0.071-2.423 0.112-5.274 0.112-8.135 0-47.959-11.388-93.258-31.609-133.34l0.777 1.699c-20.031-38.457-50.186-69.271-86.962-89.555l-1.102-0.557c-37.653-19.739-82.257-31.322-129.567-31.322-2.509 0-5.011 0.033-7.505 0.097l0.368-0.008zM153.6 343.040h71.68c3.185-0.244 6.897-0.383 10.642-0.383 39.073 0 74.609 15.145 101.058 39.885l-0.084-0.077c24.342 30.272 39.070 69.175 39.070 111.518 0 5.442-0.243 10.827-0.72 16.145l0.050-0.687c0.452 4.734 0.71 10.236 0.71 15.797 0 42.073-14.752 80.7-39.366 110.991l0.256-0.325c-26.361 24.642-61.882 39.774-100.938 39.774-3.577 0-7.125-0.127-10.638-0.377l0.472 0.027h-72.192z" />
<glyph unicode="&#x45;" glyph-name="E-caps" data-tags="E-caps" horiz-adv-x="439" d="M45.056 248.32v519.68h351.744v-89.088h-243.2v-124.416h224.768v-90.624h-224.768v-124.416h244.224v-91.136z" />
<glyph unicode="&#x46;" glyph-name="F-caps" data-tags="F-caps" horiz-adv-x="419" d="M45.056 248.32v519.68h345.6v-89.088h-237.056v-124.416h214.016v-90.624h-214.016v-215.552z" />
<glyph unicode="&#x47;" glyph-name="G-caps" data-tags="G-caps" horiz-adv-x="545" d="M391.168 601.088c-6.494 23.714-20.233 43.598-38.652 57.665l-0.26 0.191c-18.288 12.885-41.029 20.593-65.57 20.593-1.789 0-3.568-0.041-5.337-0.122l0.251 0.009c-1.026 0.031-2.232 0.049-3.442 0.049-37.494 0-71-17.077-93.163-43.878l-0.163-0.203c-23.27-31.448-37.247-70.999-37.247-113.814 0-4.27 0.139-8.508 0.413-12.71l-0.030 0.572c-0.236-3.596-0.371-7.796-0.371-12.028 0-42.775 13.768-82.334 37.113-114.488l-0.39 0.564c22.141-27.325 55.698-44.649 93.301-44.649 1.76 0 3.51 0.038 5.252 0.113l-0.248-0.009c2.308-0.156 5.002-0.245 7.717-0.245 30.133 0 57.712 10.937 78.982 29.059l-0.171-0.142c20.19 18.758 32.782 45.455 32.782 75.094 0 0.6-0.005 1.198-0.015 1.796l0.001-0.090h-112.128v82.944h218.112v-66.56c0.056-1.879 0.088-4.089 0.088-6.307 0-40.964-10.86-79.392-29.857-112.562l0.585 1.109c-19.104-32.57-46.261-58.577-78.796-75.77l-1.076-0.518c-32.814-16.807-71.587-26.657-112.659-26.657-1.433 0-2.864 0.012-4.291 0.036l0.215-0.003c-0.813-0.009-1.773-0.015-2.734-0.015-46.323 0-89.714 12.555-126.955 34.447l1.177-0.64c-37.206 21.956-66.776 53.334-85.946 90.904l-0.582 1.256c-19.449 39.182-30.83 85.328-30.83 134.131 0 2.885 0.040 5.761 0.119 8.627l-0.009-0.422c-0.084 2.662-0.132 5.793-0.132 8.934 0 49.592 11.971 96.388 33.18 137.657l-0.791-1.695c20.281 38.599 50.14 69.772 86.487 91.071l1.065 0.577c34.281 19.987 75.46 31.786 119.395 31.786 1.585 0 3.167-0.015 4.745-0.046l-0.236 0.004c1.174 0.020 2.56 0.031 3.948 0.031 37.331 0 72.765-8.12 104.633-22.691l-1.573 0.644c31.381-14.703 57.611-35.687 77.993-61.502l0.343-0.45c19.693-25.42 33.077-56.659 37.285-90.74l0.091-0.908z" />
<glyph unicode="&#x48;" glyph-name="H-caps" data-tags="H-caps" horiz-adv-x="535" d="M45.056 248.32v519.68h108.544v-213.504h225.792v213.504h110.080v-519.68h-110.080v215.552h-225.792v-215.552z" />
<glyph unicode="&#x49;" glyph-name="I-caps" data-tags="I-caps" horiz-adv-x="201" d="M153.6 768v-519.68h-108.544v519.68z" />
<glyph unicode="&#x4a;" glyph-name="J-caps" data-tags="J-caps" horiz-adv-x="409" d="M256 768h107.008v-363.52c0.029-1.152 0.045-2.509 0.045-3.87 0-30.829-8.384-59.701-22.996-84.458l0.423 0.776c-15.060-24.689-36.294-44.279-61.595-56.95l-0.869-0.394c-26.101-12.943-56.839-20.516-89.345-20.516-1.35 0-2.697 0.013-4.041 0.039l0.201-0.003c-0.070 0-0.153 0-0.235 0-29.707 0-57.963 6.216-83.536 17.419l1.34-0.523c-26.397 10.526-48.064 28.234-63.18 50.714l-0.308 0.486c-13.914 22.66-22.156 50.102-22.156 79.469 0 2.303 0.051 4.593 0.151 6.871l-0.011-0.324h109.568c-0.044-0.903-0.070-1.961-0.070-3.024 0-17.49 6.851-33.38 18.016-45.132l-0.027 0.028c11.14-10.812 26.356-17.478 43.129-17.478 1.038 0 2.070 0.026 3.095 0.076l-0.144-0.006c41.984 0 63.488 25.6 63.488 76.8z" />
<glyph unicode="&#x4b;" glyph-name="K-caps" data-tags="K-caps" horiz-adv-x="495" d="M45.056 248.32v519.68h108.544v-227.84h6.656l189.952 227.84h132.096l-193.536-231.424 195.584-288.256h-131.584l-142.848 212.48-56.32-64v-148.48z" />
<glyph unicode="&#x4c;" glyph-name="L-caps" data-tags="L-caps" horiz-adv-x="407" d="M45.056 248.32v519.68h108.544v-430.592h225.28v-91.136z" />
<glyph unicode="&#x4d;" glyph-name="M-caps" data-tags="M-caps" horiz-adv-x="663" d="M45.056 768h136.192l143.36-350.72h6.144l143.872 350.72h135.68v-519.68h-107.008v339.456h-4.096l-135.168-336.896h-72.704l-134.656 338.432h-3.072v-340.992h-108.544z" />
<glyph unicode="&#x4e;" glyph-name="N-caps" data-tags="N-caps" horiz-adv-x="527" d="M481.28 768v-519.68h-95.232l-226.816 328.192h-5.632v-328.192h-108.544v519.68h96.768l225.28-328.192h4.608v328.192z" />
<glyph unicode="&#x4f;" glyph-name="O-caps" data-tags="O-caps" horiz-adv-x="561" d="M524.288 508.928c0.084-2.662 0.132-5.793 0.132-8.934 0-49.592-11.971-96.388-33.18-137.657l0.791 1.695c-20.281-38.444-50.145-69.458-86.479-90.561l-1.073-0.575c-34.632-19.985-76.17-31.776-120.462-31.776-1.39 0-2.778 0.012-4.162 0.035l0.209-0.003c-1.534-0.034-3.343-0.054-5.155-0.054-44.579 0-86.403 11.796-122.522 32.436l1.213-0.638c-37.412 21.876-67.271 53.049-86.959 90.414l-0.593 1.234c-18.926 38.246-29.999 83.275-29.999 130.89 0 4.746 0.11 9.466 0.328 14.159l-0.025-0.665c-0.103 2.958-0.162 6.433-0.162 9.922 0 49.378 11.788 96.004 32.702 137.215l-0.796-1.729c19.754 38.229 48.913 69.195 84.49 90.571l1.014 0.565c34.631 19.672 76.076 31.268 120.229 31.268 1.472 0 2.941-0.013 4.407-0.039l-0.22 0.003c1.438 0.030 3.133 0.048 4.833 0.048 43.937 0 85.165-11.603 120.785-31.911l-1.202 0.631c38.224-21.406 68.796-52.471 89.013-89.945l0.587-1.191c20.419-39.73 32.388-86.692 32.388-136.448 0-3.151-0.048-6.29-0.143-9.417l0.011 0.458zM412.672 508.928c0.268 3.834 0.42 8.308 0.42 12.818 0 42.859-13.785 82.498-37.164 114.725l0.392-0.567c-21.762 26.701-54.65 43.617-91.489 43.617-1.677 0-3.345-0.035-5.005-0.104l0.237 0.008c-1.352 0.055-2.938 0.087-4.532 0.087-36.909 0-69.868-16.906-91.558-43.397l-0.166-0.21c-22.7-31.53-36.305-70.928-36.305-113.504 0-4.74 0.169-9.441 0.5-14.097l-0.036 0.625c-0.283-3.935-0.444-8.525-0.444-13.153 0-42.51 13.597-81.843 36.68-113.889l-0.396 0.578c21.856-26.701 54.816-43.607 91.724-43.607 1.594 0 3.18 0.032 4.758 0.094l-0.227-0.007c1.422-0.062 3.091-0.097 4.767-0.097 36.839 0 69.726 16.916 91.32 43.403l0.169 0.214c22.974 31.599 36.753 71.173 36.753 113.965 0 4.397-0.146 8.761-0.432 13.086l0.031-0.587z" />
<glyph unicode="&#x50;" glyph-name="P-caps" data-tags="P-caps" horiz-adv-x="464" d="M45.056 248.32v519.68h204.8c1.938 0.063 4.217 0.099 6.504 0.099 34.955 0 67.957-8.36 97.116-23.189l-1.219 0.563c26.642-14.094 48.204-34.671 63.086-59.686l0.402-0.73c13.895-25.413 22.066-55.671 22.066-87.837 0-1.52-0.018-3.036-0.055-4.547l0.004 0.224c0.038-1.363 0.059-2.967 0.059-4.577 0-31.797-8.377-61.638-23.045-87.435l0.458 0.875c-15.11-26.653-37.13-47.851-63.653-61.549l-0.859-0.403c-28.161-14.256-61.394-22.606-96.577-22.606-2.048 0-4.089 0.028-6.123 0.084l0.3-0.007h-94.72v-168.96zM153.6 505.856h76.8c2.228-0.187 4.822-0.294 7.441-0.294 24.365 0 46.569 9.249 63.293 24.428l-0.078-0.070c14.326 15.681 23.102 36.644 23.102 59.656 0 1.167-0.023 2.33-0.067 3.486l0.005-0.167c0.061 1.218 0.096 2.646 0.096 4.081 0 22.776-8.8 43.496-23.185 58.947l0.048-0.052c-16.855 15.11-39.245 24.348-63.793 24.348-2.595 0-5.167-0.103-7.71-0.306l0.336 0.022h-76.288z" />
<glyph unicode="&#x51;" glyph-name="Q-caps" data-tags="Q-caps" horiz-adv-x="561" d="M524.288 508.928c0.044-1.97 0.070-4.29 0.070-6.617 0-41.678-8.111-81.462-22.84-117.859l0.754 2.108c-13.919-34.348-34.457-63.433-60.225-86.869l-0.191-0.171 74.752-94.72h-102.4l-41.984 51.2c-26.766-10.376-57.743-16.389-90.124-16.389-0.536 0-1.071 0.002-1.606 0.005h0.082c-0.903-0.012-1.97-0.019-3.039-0.019-45.643 0-88.399 12.366-125.098 33.929l1.161-0.631c-37.412 21.876-67.271 53.049-86.959 90.414l-0.593 1.234c-18.89 38.695-29.935 84.194-29.935 132.272 0 4.26 0.087 8.499 0.258 12.717l-0.020-0.605c-0.087 2.722-0.136 5.922-0.136 9.134 0 49.643 11.775 96.536 32.685 138.037l-0.805-1.763c19.754 38.229 48.913 69.195 84.49 90.571l1.014 0.565c34.631 19.672 76.076 31.268 120.229 31.268 1.472 0 2.941-0.013 4.407-0.039l-0.22 0.003c1.355 0.027 2.953 0.042 4.554 0.042 44.202 0 85.696-11.597 121.604-31.915l-1.231 0.641c37.116-21.856 66.773-52.827 86.445-89.907l0.595-1.229c21.64-40.706 34.347-89.007 34.347-140.275 0-1.805-0.016-3.606-0.047-5.403l0.004 0.27zM242.176 429.568h93.696l38.4-51.2c12.431 15.303 22.093 33.418 27.887 53.186l0.273 1.086c6.51 21.484 10.258 46.175 10.258 71.741 0 1.059-0.006 2.116-0.019 3.171l0.002-0.16c0.268 3.834 0.42 8.308 0.42 12.818 0 42.859-13.785 82.498-37.164 114.725l0.392-0.567c-21.762 26.701-54.65 43.617-91.489 43.617-1.677 0-3.345-0.035-5.005-0.104l0.237 0.008c-1.21 0.044-2.633 0.069-4.061 0.069-37.049 0-70.152-16.889-92.033-43.387l-0.162-0.202c-22.7-31.53-36.305-70.928-36.305-113.504 0-4.74 0.169-9.441 0.5-14.097l-0.036 0.625c-0.283-3.935-0.444-8.525-0.444-13.153 0-42.51 13.597-81.843 36.68-113.889l-0.396 0.578c22.043-26.701 55.147-43.589 92.195-43.589 1.428 0 2.85 0.025 4.266 0.075l-0.205-0.006c10.011 0.686 19.285 2.142 28.271 4.33l-1.135-0.234z" />
<glyph unicode="&#x52;" glyph-name="R-caps" data-tags="R-caps" horiz-adv-x="471" d="M45.056 248.32v519.68h204.8c3.51 0.228 7.61 0.358 11.741 0.358 48.29 0 92.427-17.78 126.222-47.151l-0.235 0.2c31.607-29.604 51.301-71.596 51.301-118.188 0-2.010-0.037-4.012-0.109-6.004l0.008 0.288c0.053-1.586 0.084-3.449 0.084-5.32 0-31.847-8.785-61.643-24.063-87.096l0.427 0.768c-16.54-25.355-39.965-44.988-67.627-56.471l-0.981-0.361 110.592-204.8h-122.368l-98.816 188.928h-82.432v-184.832zM153.6 521.728h76.8c62.464 0 93.696 26.112 93.696 77.824s-31.232 80.384-94.208 80.384h-76.288z" />
<glyph unicode="&#x53;" glyph-name="S-caps" data-tags="S-caps" horiz-adv-x="470" d="M328.192 620.032c-1.882 18.919-11.885 35.179-26.425 45.435l-0.199 0.133c-16.070 10.983-35.923 17.538-57.308 17.538-1.814 0-3.616-0.047-5.407-0.14l0.25 0.010c-1.748 0.111-3.791 0.174-5.848 0.174-20.993 0-40.449-6.58-56.418-17.791l0.314 0.209c-13.174-8.469-22.131-22.514-23.539-38.72l-0.013-0.192c-0.037-0.684-0.058-1.485-0.058-2.29 0-17.316 9.658-32.375 23.881-40.086l0.24-0.119c17.299-9.303 37.359-16.576 58.528-20.765l1.376-0.227 47.104-11.264c30.337-6.488 57.202-16.562 81.992-29.98l-1.608 0.796c22.732-12.644 41.465-29.905 55.448-50.634l0.36-0.566c12.57-19.949 20.029-44.215 20.029-70.223 0-1.413-0.022-2.82-0.066-4.222l0.005 0.205c0.102-1.979 0.16-4.296 0.16-6.627 0-43.168-19.934-81.68-51.098-106.833l-0.262-0.204c-37.459-26.83-84.211-42.903-134.717-42.903-4.842 0-9.649 0.148-14.418 0.439l0.655-0.032c-4.352-0.277-9.438-0.434-14.56-0.434-52.008 0-100.218 16.256-139.828 43.965l0.788-0.522c-36.025 28.375-58.945 71.995-58.945 120.969 0 1.572 0.024 3.139 0.071 4.7l-0.005-0.229h106.496c0.678-24.113 12.52-45.327 30.519-58.737l0.201-0.143c18.706-12.567 41.737-20.058 66.516-20.058 1.636 0 3.264 0.033 4.884 0.097l-0.232-0.007c1.714-0.093 3.719-0.146 5.737-0.146 22.791 0 44.009 6.738 61.769 18.332l-0.434-0.266c15.48 9.857 25.6 26.929 25.6 46.364 0 0.080 0 0.16-0.001 0.241v-0.012c0.091 1.081 0.143 2.34 0.143 3.61 0 16.732-9.018 31.358-22.458 39.282l-0.213 0.116c-19.096 10.354-41.27 18.201-64.724 22.335l-1.324 0.193-56.832 16.384c-39.694 8.609-74.298 26.543-102.658 51.422l0.258-0.222c-24.254 21.142-39.495 52.090-39.495 86.599 0 1.416 0.026 2.825 0.077 4.228l-0.006-0.203c-0.046 1.313-0.072 2.855-0.072 4.404 0 29.466 9.429 56.731 25.434 78.94l-0.274-0.4c18.035 24.224 41.899 43.153 69.556 54.882l1.1 0.414c28.302 12.353 61.278 19.541 95.933 19.541 2.274 0 4.541-0.031 6.801-0.092l-0.333 0.007c2.073 0.064 4.51 0.1 6.957 0.1 34.489 0 67.297-7.194 97.007-20.164l-1.563 0.608c27.338-12.369 49.854-31.269 66.216-54.773l0.344-0.523c15.708-22.824 25.089-51.063 25.089-81.493 0-0.15 0-0.3-0.001-0.451v0.023z" />
<glyph unicode="&#x54;" glyph-name="T-caps" data-tags="T-caps" horiz-adv-x="479" d="M25.6 678.912v89.088h428.032v-89.088h-159.744v-430.592h-109.056v430.592z" />
<glyph unicode="&#x55;" glyph-name="U-caps" data-tags="U-caps" horiz-adv-x="523" d="M368.128 768h109.568v-343.040c0.142-2.572 0.223-5.582 0.223-8.611 0-68.888-41.861-127.998-101.532-153.282l-1.091-0.41c-31.371-13.628-67.911-21.556-106.303-21.556-1.868 0-3.732 0.019-5.591 0.056l0.278-0.004c-1.668-0.037-3.634-0.057-5.604-0.057-38.468 0-75.084 7.93-108.302 22.243l1.778-0.682c-31.75 13.311-57.856 34.806-76.42 61.878l-0.38 0.586c-17.446 26.716-27.824 59.426-27.824 94.56 0 2.758 0.064 5.5 0.19 8.226l-0.014-0.386v340.48h106.496v-340.992c-0.071-1.238-0.111-2.687-0.111-4.145 0-24.939 11.808-47.12 30.139-61.257l0.18-0.134c19.231-15.083 43.777-24.188 70.449-24.188 1.874 0 3.737 0.045 5.589 0.134l-0.261-0.010c1.436-0.063 3.12-0.1 4.812-0.1 27.988 0 53.666 9.893 73.727 26.373l-0.203-0.161c18.507 14.565 30.282 36.965 30.282 62.116 0 1.203-0.027 2.4-0.080 3.589l0.006-0.169z" />
<glyph unicode="&#x56;" glyph-name="V-caps" data-tags="V-caps" horiz-adv-x="536" d="M139.264 768l126.464-394.24h4.608l126.464 394.24h121.856l-179.712-519.68h-141.824l-180.224 519.68z" />
<glyph unicode="&#x57;" glyph-name="W-caps" data-tags="W-caps" horiz-adv-x="742" d="M162.816 248.32l-149.504 519.68h120.832l86.016-358.4h4.096l95.232 358.4h102.4l94.72-363.008h4.608l87.552 363.008h120.32l-148.992-519.68h-107.52l-99.328 340.992h-4.096l-99.328-340.992z" />
<glyph unicode="&#x58;" glyph-name="X-caps" data-tags="X-caps" horiz-adv-x="512" d="M148.48 768l107.52-175.616 107.52 175.616h124.416l-159.232-259.072 162.816-260.608h-126.976l-108.544 178.176-109.056-178.176h-126.464l163.328 260.608-160.256 259.072z" />
<glyph unicode="&#x59;" glyph-name="Y-caps" data-tags="Y-caps" horiz-adv-x="519" d="M14.848 768h123.392l117.76-222.72h5.12l119.808 222.72h123.392l-189.952-335.36v-184.32h-109.568v184.32z" />
<glyph unicode="&#x5a;" glyph-name="Z-caps" data-tags="Z-caps" horiz-adv-x="478" d="M39.936 248.32v65.536l260.096 365.056h-260.608v89.088h398.848v-63.488l-260.096-365.056h260.608v-91.136z" />
<glyph unicode="&#x5b;" glyph-name="open-bracket" data-tags="open-bracket" horiz-adv-x="293" d="M75.776 135.168v644.096h200.704v-80.896h-95.744v-481.792h95.744v-81.408z" />
<glyph unicode="&#x5c;" glyph-name="back-slash" data-tags="back-slash" horiz-adv-x="306" d="M26.624 768h95.232l153.6-600.064h-92.672z" />
<glyph unicode="&#x5d;" glyph-name="close-bracket" data-tags="close-bracket" horiz-adv-x="293" d="M217.6 779.776v-644.096h-201.216v80.896h96.256v481.792h-96.256v81.408z" />
<glyph unicode="&#x5e;" glyph-name="carat" data-tags="carat" horiz-adv-x="350" d="M23.552 533.504l107.008 224.768h88.064l107.008-224.768h-81.92l-66.56 153.6h-4.608l-66.56-153.6z" />
<glyph unicode="&#x5f;" glyph-name="underscore" data-tags="underscore" horiz-adv-x="343" d="M342.528 248.32v-81.92h-342.528v81.92z" />
<glyph unicode="&#x61;" glyph-name="a" data-tags="a" horiz-adv-x="416" d="M153.6 241.152c-1.639-0.067-3.563-0.105-5.495-0.105-32.908 0-63.244 11.009-87.527 29.545l0.35-0.257c-22.273 18.905-36.314 46.923-36.314 78.22 0 3.466 0.172 6.892 0.509 10.27l-0.034-0.427c-0.147 2.053-0.23 4.448-0.23 6.862 0 23.303 7.784 44.787 20.893 61.996l-0.183-0.25c15.027 15.948 34.29 27.746 55.994 33.599l0.838 0.193c21.064 7.454 45.566 12.887 70.956 15.266l1.236 0.094c26.86 1.839 51.713 5.66 75.833 11.377l-3.129-0.625c14.336 3.584 22.016 11.776 22.016 24.064v1.024c0.060 0.881 0.094 1.909 0.094 2.946 0 13.671-5.953 25.952-15.409 34.39l-0.045 0.040c-10.618 8.796-24.38 14.133-39.388 14.133-2.177 0-4.327-0.112-6.445-0.331l0.265 0.022c-1.233 0.071-2.675 0.112-4.127 0.112-15.834 0-30.542-4.824-42.734-13.083l0.268 0.171c-10.887-7.826-18.992-18.916-22.927-31.824l-0.113-0.432-99.84 10.24c6.466 35.893 26.67 66.159 54.86 85.73l0.436 0.286c29.914 19.7 66.599 31.425 106.022 31.425 3.048 0 6.080-0.070 9.094-0.209l-0.427 0.016c0.612 0.006 1.335 0.009 2.059 0.009 28.461 0 55.737-5.070 80.975-14.357l-1.627 0.524c24.779-8.727 45.568-23.575 61.246-42.763l0.194-0.245c14.499-19.408 23.215-43.873 23.215-70.373 0-2.261-0.063-4.507-0.189-6.736l0.014 0.309v-263.68h-102.4v54.272h-3.584c-10.039-18.619-24.482-33.718-41.982-44.257l-0.514-0.287c-19.147-10.726-42.017-17.042-66.362-17.042-2.231 0-4.449 0.053-6.654 0.158l0.312-0.012zM184.832 315.904c0.828-0.029 1.8-0.046 2.776-0.046 21.362 0 40.86 7.977 55.679 21.114l-0.088-0.076c14.147 12.185 23.049 30.12 23.049 50.134 0 0.375-0.003 0.749-0.009 1.123l0.001-0.056v41.472c-5.747-3.206-12.4-5.843-19.413-7.565l-0.555-0.115-28.16-5.632-26.112-6.656c-17.274-1.966-32.903-7.616-46.547-16.144l0.467 0.272c-10.593-7.289-17.449-19.345-17.449-33.003 0-0.638 0.015-1.272 0.044-1.902l-0.003 0.089c-0.042-0.677-0.065-1.469-0.065-2.266 0-13.15 6.438-24.796 16.334-31.958l0.115-0.079c10.012-5.648 21.982-8.975 34.73-8.975 2.193 0 4.364 0.099 6.507 0.291l-0.276-0.020z" />
<glyph unicode="&#x62;" glyph-name="b" data-tags="b" horiz-adv-x="455" d="M45.056 248.32v519.68h108.544v-194.048h3.584c5.681 12.359 12.709 22.992 21.101 32.38l-0.109-0.124c9.55 11.365 21.332 20.525 34.707 26.871l0.621 0.265c14.83 7.155 32.248 11.336 50.642 11.336 1.457 0 2.907-0.026 4.351-0.078l-0.209 0.006c0.196 0.001 0.427 0.001 0.659 0.001 28.988 0 56.016-8.394 78.785-22.884l-0.596 0.354c25.096-16.354 44.884-38.937 57.447-65.595l0.409-0.965c13.676-30.528 21.642-66.164 21.642-103.66 0-2.978-0.050-5.944-0.15-8.897l0.011 0.43c0.098-2.635 0.154-5.73 0.154-8.838 0-36.623-7.784-71.427-21.787-102.85l0.64 1.608c-12.598-28.064-32.052-51.134-56.283-67.741l-0.549-0.355c-22.258-14.455-49.481-23.050-78.712-23.050-0.588 0-1.175 0.003-1.762 0.010l0.089-0.001c-0.244-0.002-0.532-0.003-0.82-0.003-18.198 0-35.515 3.767-51.216 10.565l0.835-0.322c-14.099 6.556-26.025 15.533-35.741 26.51l-0.099 0.114c-8.499 9.249-15.695 19.884-21.177 31.486l-0.327 0.77h-6.144v-62.976zM153.6 443.904c-0.28-3.412-0.44-7.385-0.44-11.396 0-27.29 7.388-52.855 20.273-74.803l-0.378 0.696c12.417-18.949 33.553-31.291 57.572-31.291 1 0 1.996 0.021 2.986 0.064l-0.141-0.005c1.066-0.059 2.314-0.092 3.569-0.092 24.114 0 45.343 12.348 57.711 31.066l0.16 0.258c13.261 22.244 21.1 49.055 21.1 77.696 0 2.026-0.039 4.042-0.117 6.049l0.009-0.289c0.058 1.573 0.091 3.421 0.091 5.277 0 28.629-7.833 55.43-21.472 78.374l0.389-0.707c-12.413 18.976-33.564 31.339-57.603 31.339-1.35 0-2.69-0.039-4.021-0.116l0.184 0.008c-0.946 0.047-2.055 0.073-3.17 0.073-23.809 0-44.786-12.128-57.089-30.544l-0.157-0.25c-12.394-20.818-19.72-45.903-19.72-72.701 0-3.063 0.096-6.104 0.284-9.12l-0.021 0.413z" />
<glyph unicode="&#x63;" glyph-name="c" data-tags="c" horiz-adv-x="421" d="M219.648 240.64c-1.376-0.034-2.996-0.054-4.621-0.054-35.935 0-69.647 9.517-98.754 26.168l0.975-0.514c-28.34 17.158-50.881 41.342-65.593 70.185l-0.455 0.983c-14.561 29.402-23.081 64.021-23.081 100.63 0 1.522 0.015 3.041 0.044 4.557l-0.003-0.227c-0.034 1.469-0.053 3.199-0.053 4.934 0 36.579 8.524 71.167 23.695 101.886l-0.602-1.348c15.202 29.944 37.944 54.165 65.772 70.734l0.788 0.434c27.961 16.143 61.5 25.667 97.263 25.667 1.806 0 3.607-0.024 5.402-0.073l-0.265 0.006c0.625 0.007 1.365 0.011 2.105 0.011 30.793 0 59.998-6.796 86.199-18.97l-1.263 0.527c24.893-11.799 45.438-29.225 60.604-50.716l0.324-0.484c14.627-22.301 23.668-49.432 24.57-78.613l0.006-0.235h-102.4c-2.508 18.514-10.835 34.736-23.049 47.113l0.009-0.009c-11.869 11.133-27.881 17.972-45.491 17.972-0.927 0-1.85-0.019-2.768-0.057l0.132 0.004c-0.421 0.009-0.917 0.014-1.415 0.014-24.201 0-45.641-11.825-58.856-30.012l-0.145-0.21c-14.596-21.832-23.294-48.685-23.294-77.569 0-2.972 0.092-5.922 0.274-8.848l-0.020 0.401c-0.070-1.68-0.109-3.651-0.109-5.631 0-30.177 9.225-58.199 25.009-81.401l-0.323 0.504c13.334-18.693 34.945-30.737 59.369-30.737 0.548 0 1.095 0.006 1.641 0.018l-0.081-0.001c0.535-0.015 1.165-0.023 1.798-0.023 17.372 0 33.246 6.408 45.389 16.99l-0.083-0.071c12.906 12.425 21.659 29.081 24.023 47.731l0.041 0.397h102.4c-1.647-29.371-10.575-56.35-24.991-79.565l0.415 0.717c-14.859-22.206-35.155-39.708-59.022-50.831l-0.882-0.369c-26.341-13.778-57.521-21.905-90.589-22.016h-0.035z" />
<glyph unicode="&#x64;" glyph-name="d" data-tags="d" horiz-adv-x="455" d="M187.392 242.176c-0.497-0.006-1.084-0.010-1.672-0.010-29.231 0-56.454 8.595-79.28 23.395l0.569-0.346c-24.47 16.978-43.605 40.060-55.411 67.077l-0.397 1.019c-13.335 30.286-21.096 65.594-21.096 102.716 0 2.59 0.038 5.17 0.113 7.742l-0.009-0.378c-0.154 3.286-0.241 7.138-0.241 11.010 0 36.589 7.817 71.352 21.871 102.71l-0.638-1.592c12.744 27.76 32.588 50.401 57.242 66.192l0.614 0.368c22.026 14.133 48.905 22.529 77.745 22.529 0.208 0 0.416 0 0.623-0.001h-0.032c1.314 0.052 2.857 0.081 4.406 0.081 18.48 0 35.982-4.184 51.612-11.656l-0.722 0.311c13.867-6.877 25.6-15.992 35.215-27.004l0.113-0.132c8.073-9.337 15.078-19.945 20.616-31.395l0.376-0.861h3.072v194.048h107.52v-519.68h-106.496v62.976h-4.608c-5.809-12.372-13.005-23.007-21.587-32.347l0.083 0.091c-9.908-10.967-21.808-19.92-35.16-26.33l-0.68-0.294c-14.984-6.496-32.434-10.274-50.767-10.274-1.052 0-2.102 0.012-3.148 0.037l0.155-0.003zM221.696 328.704c1.139-0.067 2.472-0.105 3.813-0.105 23.548 0 44.365 11.688 56.967 29.58l0.147 0.221c13.602 21.951 21.664 48.576 21.664 77.084 0 2.421-0.058 4.829-0.173 7.222l0.013-0.338c0.175 2.656 0.275 5.759 0.275 8.885 0 28.197-8.111 54.499-22.128 76.701l0.35-0.593c-12.793 18.681-34.012 30.779-58.057 30.779-1.010 0-2.015-0.021-3.014-0.064l0.143 0.005c-0.986 0.050-2.14 0.078-3.302 0.078-24.189 0-45.497-12.334-57.979-31.056l-0.16-0.255c-13.25-22.237-21.083-49.037-21.083-77.667 0-1.856 0.033-3.704 0.098-5.544l-0.008 0.267c-0.143-2.441-0.225-5.296-0.225-8.17 0-28.599 8.086-55.31 22.096-77.971l-0.367 0.638c12.31-18.121 32.824-29.87 56.082-29.87 1.705 0 3.395 0.063 5.069 0.187l-0.223-0.013z" />
<glyph unicode="&#x65;" glyph-name="e" data-tags="e" horiz-adv-x="429" d="M221.696 240.64c-1.271-0.028-2.769-0.044-4.27-0.044-35.932 0-69.735 9.117-99.221 25.163l1.091-0.544c-29.258 16.347-52.556 40.304-67.657 69.22l-0.439 0.924c-14.589 29.426-23.126 64.078-23.126 100.723 0 2.21 0.031 4.413 0.093 6.608l-0.007-0.323c-0.029 1.381-0.046 3.009-0.046 4.64 0 36.852 8.52 71.715 23.696 102.725l-0.61-1.381c15.222 29.493 37.544 53.457 64.774 70.219l0.762 0.437c27.661 16.156 60.897 25.694 96.36 25.694 2.124 0 4.24-0.034 6.347-0.102l-0.307 0.008c0.998 0.018 2.174 0.029 3.353 0.029 32.837 0 63.77-8.156 90.881-22.554l-1.050 0.509c27.5-15.412 49.396-37.965 63.586-65.176l0.414-0.872c15.586-29.713 24.732-64.914 24.732-102.252 0-2.933-0.056-5.853-0.168-8.758l0.013 0.418v-29.696h-266.24c-0.083-1.49-0.13-3.233-0.13-4.988 0-24.466 9.177-46.789 24.277-63.714l-0.083 0.094c15.254-15.563 36.492-25.21 59.984-25.21 1.593 0 3.175 0.044 4.746 0.132l-0.218-0.010c0.782-0.024 1.702-0.037 2.624-0.037 16.303 0 31.629 4.187 44.96 11.544l-0.48-0.243c13.021 7.592 22.924 19.318 28.020 33.35l0.14 0.442 102.4-6.656c-7.483-36.528-28.69-67.108-57.878-86.73l-0.49-0.31c-31.617-20.973-70.445-33.462-112.189-33.462-3.040 0-6.064 0.066-9.071 0.197l0.428-0.015zM134.656 483.328h164.352c0.008 0.423 0.012 0.921 0.012 1.421 0 21.889-8.585 41.774-22.572 56.469l0.032-0.034c-13.932 13.656-33.033 22.084-54.102 22.084-1.14 0-2.275-0.025-3.403-0.074l0.161 0.006c-0.994 0.045-2.159 0.071-3.33 0.071-21.967 0-41.823-9.042-56.047-23.607l-0.015-0.015c-14.736-14.396-24.158-34.175-25.082-56.151l-0.006-0.169z" />
<glyph unicode="&#x66;" glyph-name="f" data-tags="f" horiz-adv-x="280" d="M256 639.488v-81.408h-76.8v-309.76h-108.032v309.76h-55.296v81.408h55.296v26.112c-0.353 3.431-0.555 7.413-0.555 11.443 0 33.772 14.155 64.238 36.855 85.788l0.052 0.049c23.263 19.491 53.515 31.329 86.532 31.329 1.799 0 3.59-0.035 5.372-0.105l-0.256 0.008c0.901 0.011 1.965 0.018 3.031 0.018 15.206 0 30.107-1.31 44.594-3.824l-1.545 0.222c13.312 0 24.064-5.12 30.72-7.168l-19.968-81.408-15.872 4.096c-2.913 0.243-6.304 0.381-9.728 0.381s-6.815-0.138-10.169-0.41l0.441 0.029c-1.388 0.165-2.995 0.259-4.625 0.259-10.876 0-20.774-4.186-28.17-11.036l0.027 0.025c-5.459-8.018-8.716-17.917-8.716-28.576 0-0.394 0.004-0.787 0.013-1.179l-0.001 0.058v-26.112z" />
<glyph unicode="&#x67;" glyph-name="g" data-tags="g" horiz-adv-x="454" d="M219.648 96.256c-3.656-0.222-7.93-0.348-12.234-0.348-41.494 0-80.244 11.753-113.101 32.111l0.919-0.531c-27.329 17.291-47.035 44.526-54.122 76.506l-0.15 0.806 102.4 13.312c6.061-11.915 14.952-21.627 25.818-28.498l0.294-0.174c14.181-8.472 31.279-13.481 49.547-13.481 2.022 0 4.030 0.061 6.022 0.182l-0.274-0.013c1.13-0.047 2.455-0.075 3.787-0.075 20.404 0 39.325 6.349 54.896 17.178l-0.316-0.208c14.282 11.825 23.312 29.559 23.312 49.401 0 2.075-0.099 4.128-0.292 6.153l0.020-0.258v71.68h-7.168c-8.81-18.040-21.692-32.891-37.51-43.786l-0.378-0.246c-18.842-12.629-42.029-20.156-66.973-20.156-2.376 0-4.737 0.068-7.079 0.203l0.324-0.015c-0.492-0.006-1.073-0.009-1.655-0.009-28.804 0-55.786 7.798-78.951 21.399l0.734-0.398c-24.456 14.161-43.783 34.804-55.956 59.596l-0.364 0.82c-13.678 29.012-21.662 63.017-21.662 98.887 0 3.036 0.057 6.059 0.171 9.067l-0.013-0.434c-0.126 2.935-0.198 6.378-0.198 9.838 0 36.51 7.995 71.154 22.33 102.274l-0.628-1.52c12.744 27.76 32.588 50.401 57.242 66.192l0.614 0.368c22.026 14.133 48.905 22.529 77.745 22.529 0.208 0 0.416 0 0.623-0.001h-0.032c1.314 0.052 2.857 0.081 4.406 0.081 18.48 0 35.982-4.184 51.612-11.656l-0.722 0.311c14.113-6.729 26.037-15.87 35.728-27.005l0.112-0.131c8.073-9.337 15.078-19.945 20.616-31.395l0.376-0.861h4.096v65.536h105.984v-394.752c0.047-1.319 0.073-2.869 0.073-4.425 0-29.049-9.233-55.941-24.926-77.902l0.277 0.407c-17.045-22.91-39.969-40.56-66.56-50.851l-1.024-0.349c-26.839-9.801-57.825-15.468-90.134-15.468-2.693 0-5.377 0.039-8.051 0.118l0.392-0.009zM219.648 335.36c1.016-0.052 2.206-0.081 3.404-0.081 23.552 0 44.432 11.441 57.386 29.068l0.139 0.198c13.628 20.549 21.744 45.783 21.744 72.913 0 2.809-0.087 5.597-0.258 8.363l0.019-0.379c0.116 2.132 0.182 4.628 0.182 7.139 0 27.743-8.082 53.598-22.021 75.339l0.335-0.558c-12.793 18.681-34.012 30.779-58.057 30.779-1.010 0-2.015-0.021-3.014-0.064l0.143 0.005c-0.986 0.050-2.14 0.078-3.302 0.078-24.189 0-45.497-12.334-57.979-31.056l-0.16-0.255c-13.258-21.505-21.114-47.566-21.114-75.461 0-2.091 0.044-4.172 0.132-6.242l-0.010 0.296c-0.13-2.203-0.204-4.78-0.204-7.374 0-27.157 8.101-52.422 22.018-73.51l-0.31 0.5c12.957-18.179 33.966-29.892 57.711-29.892 1.853 0 3.689 0.071 5.506 0.211l-0.241-0.015z" />
<glyph unicode="&#x68;" glyph-name="h" data-tags="h" horiz-adv-x="447" d="M153.6 474.624v-226.304h-110.592v519.68h105.472v-199.68h5.12c8.162 23.313 22.969 42.584 42.136 56.080l0.36 0.24c19.422 12.586 43.168 20.069 68.661 20.069 1.782 0 3.556-0.037 5.32-0.109l-0.253 0.008c1.599 0.071 3.474 0.111 5.358 0.111 36.489 0 69.439-15.147 92.908-39.496l0.038-0.040c23.089-25.773 37.205-60.003 37.205-97.529 0-3.516-0.124-7.002-0.368-10.456l0.026 0.465v-249.344h-108.032v229.888c0.089 1.419 0.139 3.077 0.139 4.747 0 19.662-7.015 37.685-18.678 51.705l0.106-0.131c-12.098 12.384-28.966 20.064-47.627 20.064-1.257 0-2.505-0.035-3.745-0.104l0.172 0.008c-0.028 0-0.061 0-0.095 0-19.926 0-37.979-8.016-51.112-20.999l0.007 0.007c-13.973-14.443-22.585-34.148-22.585-55.864 0-1.061 0.021-2.116 0.061-3.167l-0.005 0.151z" />
<glyph unicode="&#x69;" glyph-name="i" data-tags="i" horiz-adv-x="195" d="M97.792 689.664c-0.091-0.001-0.199-0.001-0.307-0.001-15.957 0-30.456 6.239-41.192 16.41l0.027-0.026c-10.399 9.408-16.904 22.952-16.904 38.016 0 0.315 0.003 0.629 0.009 0.943l-0.001-0.047c-0.001 0.116-0.001 0.253-0.001 0.39 0 15.061 6.503 28.603 16.854 37.971l0.044 0.039c10.843 10.096 25.434 16.293 41.472 16.293s30.629-6.197 41.509-16.327l-0.037 0.034c10.68-9.416 17.388-23.123 17.408-38.396v-0.004c0.001-0.132 0.002-0.289 0.002-0.445 0-15.302-6.713-29.036-17.354-38.418l-0.056-0.048c-10.709-10.146-25.208-16.385-41.165-16.385-0.108 0-0.216 0-0.323 0.001h0.017zM43.52 248.32v391.168h110.080v-391.168z" />
<glyph unicode="&#x6a;" glyph-name="j" data-tags="j" horiz-adv-x="214" d="M61.44 639.488h108.544v-409.6c0.297-3.125 0.467-6.757 0.467-10.429 0-34.98-15.386-66.367-39.759-87.762l-0.132-0.114c-26.987-18.639-60.402-29.772-96.417-29.772-4.99 0-9.929 0.214-14.81 0.632l0.635-0.044h-19.968v86.016h14.336c1.542-0.165 3.331-0.259 5.142-0.259 12.029 0 23.088 4.148 31.827 11.091l-0.105-0.081c6.459 8.118 10.363 18.521 10.363 29.835 0 1.212-0.045 2.414-0.133 3.604l0.009-0.159zM115.712 690.688c-0.091-0.001-0.199-0.001-0.307-0.001-15.957 0-30.456 6.239-41.192 16.41l0.027-0.026c-10.697 9.43-17.41 23.165-17.41 38.467 0 0.157 0.001 0.313 0.002 0.469v-0.024c0.020 15.277 6.728 28.984 17.352 38.352l0.056 0.048c10.843 10.096 25.434 16.293 41.472 16.293s30.629-6.197 41.509-16.327l-0.037 0.034c10.68-9.416 17.388-23.123 17.408-38.396v-0.004c0.001-0.132 0.002-0.289 0.002-0.445 0-15.302-6.713-29.036-17.354-38.418l-0.056-0.048c-10.653-10.588-25.271-17.198-41.432-17.408h-0.040z" />
<glyph unicode="&#x6b;" glyph-name="k" data-tags="k" horiz-adv-x="417" d="M43.52 248.32v519.68h110.080v-276.992h6.144l124.928 148.48h124.928l-147.456-169.472 153.6-221.696h-128l-106.496 157.696-27.648-33.28v-124.416z" />
<glyph unicode="&#x6c;" glyph-name="l" data-tags="l" horiz-adv-x="195" d="M153.6 768v-519.68h-110.080v519.68z" />
<glyph unicode="&#x6d;" glyph-name="m" data-tags="m" horiz-adv-x="654" d="M43.52 248.32v391.168h102.4v-69.12h7.68c7.7 22.545 22.014 41.161 40.605 54.039l0.355 0.233c18.27 12.526 40.857 20.004 65.19 20.004 1.022 0 2.040-0.013 3.056-0.039l-0.15 0.003c0.967 0.029 2.106 0.045 3.248 0.045 24.391 0 47.035-7.48 65.762-20.272l-0.402 0.259c18.327-12.827 31.679-31.675 37.238-53.628l0.138-0.644h4.096c8.121 22.807 23.394 41.393 43.077 53.506l0.443 0.254c20.131 12.881 44.686 20.532 71.027 20.532 1.31 0 2.615-0.019 3.916-0.056l-0.191 0.004c1.334 0.054 2.901 0.084 4.474 0.084 32.856 0 62.596-13.339 84.1-34.898l0.002-0.002c20.009-23.159 32.198-53.56 32.198-86.808 0-3.866-0.165-7.694-0.488-11.477l0.034 0.493v-263.168h-108.032v241.152c0.239 2.078 0.376 4.487 0.376 6.927 0 17.19-6.777 32.797-17.805 44.295l0.021-0.022c-10.718 9.863-25.081 15.91-40.857 15.91-0.756 0-1.509-0.014-2.259-0.041l0.108 0.003c-1.085 0.073-2.353 0.114-3.63 0.114-16.757 0-31.851-7.124-42.417-18.509l-0.034-0.037c-10.604-12.42-17.056-28.663-17.056-46.414 0-1.684 0.058-3.355 0.172-5.010l-0.012 0.223v-239.104h-102.4v244.224c0.043 0.874 0.067 1.897 0.067 2.927 0 16.439-6.248 31.418-16.498 42.693l0.046-0.052c-10.545 10.462-25.069 16.927-41.103 16.927-0.67 0-1.337-0.011-2.001-0.034l0.097 0.003c-0.606 0.023-1.317 0.035-2.031 0.035-17.277 0-32.801-7.507-43.488-19.436l-0.049-0.055c-11.467-12.935-18.471-30.055-18.471-48.81 0-0.84 0.014-1.677 0.042-2.511l-0.003 0.121v-235.008z" />
<glyph unicode="&#x6e;" glyph-name="n" data-tags="n" horiz-adv-x="446" d="M153.6 474.624v-226.304h-110.592v391.168h102.4v-69.12h8.192c8.004 22.52 22.451 41.1 41.109 54.034l0.363 0.238c19.66 12.573 43.639 20.041 69.361 20.041 1.536 0 3.065-0.027 4.587-0.079l-0.221 0.006c1.514 0.064 3.29 0.1 5.075 0.1 36.415 0 69.292-15.146 92.676-39.481l0.041-0.043c23.048-26.309 37.107-60.996 37.107-98.967 0-3.009-0.088-5.997-0.262-8.962l0.019 0.409v-249.344h-108.032v229.888c0.099 1.482 0.156 3.214 0.156 4.958 0 19.431-7.029 37.221-18.683 50.965l0.095-0.114c-11.896 12.685-28.761 20.587-47.471 20.587-1.312 0-2.615-0.039-3.907-0.115l0.178 0.008c-0.216 0.002-0.471 0.004-0.726 0.004-19.727 0-37.58-8.027-50.471-20.992l-0.003-0.003c-13.080-14.53-21.081-33.858-21.081-55.055 0-1.345 0.032-2.683 0.096-4.013l-0.007 0.188z" />
<glyph unicode="&#x6f;" glyph-name="o" data-tags="o" horiz-adv-x="440" d="M220.16 240.64c-1.261-0.028-2.746-0.045-4.235-0.045-36.064 0-69.906 9.512-99.155 26.164l0.99-0.519c-28.486 16.963-51.189 40.981-66.104 69.692l-0.456 0.964c-14.568 29.371-23.093 63.959-23.093 100.538 0 1.735 0.019 3.465 0.057 5.191l-0.004-0.257c-0.039 1.581-0.061 3.444-0.061 5.311 0 36.626 8.527 71.26 23.704 102.026l-0.603-1.353c15.371 29.675 38.074 53.693 65.766 70.217l0.794 0.439c28.259 16.133 62.101 25.645 98.165 25.645 1.489 0 2.975-0.016 4.456-0.048l-0.221 0.004c1.414 0.036 3.080 0.057 4.75 0.057 35.892 0 69.561-9.519 98.62-26.169l-0.97 0.512c28.486-16.963 51.189-40.981 66.104-69.692l0.456-0.964c14.574-29.413 23.101-64.047 23.101-100.673 0-1.868-0.022-3.73-0.066-5.587l0.005 0.276c0.034-1.469 0.053-3.199 0.053-4.934 0-36.579-8.524-71.167-23.695-101.886l0.602 1.348c-15.371-29.675-38.074-53.693-65.766-70.217l-0.794-0.439c-28.089-16.138-61.758-25.657-97.65-25.657-1.67 0-3.336 0.021-4.996 0.062l0.246-0.005zM220.16 324.608c0.945-0.048 2.051-0.075 3.164-0.075 24.829 0 46.507 13.492 58.103 33.544l0.172 0.323c12.965 22.579 20.612 49.641 20.612 78.489 0 2.287-0.048 4.563-0.143 6.827l0.011-0.324c0.086 1.947 0.135 4.231 0.135 6.526 0 28.669-7.65 55.551-21.021 78.716l0.406-0.762c-11.549 21.205-33.671 35.353-59.098 35.353-0.644 0-1.285-0.009-1.924-0.027l0.094 0.002c-1.008 0.054-2.187 0.084-3.374 0.084-24.918 0-46.686-13.485-58.405-33.556l-0.173-0.321c-13.262-22.605-21.095-49.783-21.095-78.791 0-2.001 0.037-3.992 0.111-5.975l-0.008 0.286c-0.1-2.117-0.158-4.599-0.158-7.094 0-29.23 7.851-56.627 21.559-80.196l-0.409 0.763c11.892-20.391 33.66-33.876 58.578-33.876 1.187 0 2.366 0.031 3.538 0.091l-0.164-0.007z" />
<glyph unicode="&#x70;" glyph-name="p" data-tags="p" horiz-adv-x="453" d="M43.52 102.4v537.088h106.496v-65.536h3.584c5.681 12.359 12.709 22.992 21.101 32.38l-0.109-0.124c9.55 11.365 21.332 20.525 34.707 26.871l0.621 0.265c14.862 7.191 32.322 11.394 50.764 11.394 1.954 0 3.897-0.047 5.828-0.14l-0.272 0.010c0.196 0.001 0.427 0.001 0.659 0.001 28.988 0 56.016-8.394 78.785-22.884l-0.596 0.354c25.096-16.354 44.884-38.937 57.447-65.595l0.409-0.965c13.676-30.528 21.642-66.164 21.642-103.66 0-2.978-0.050-5.944-0.15-8.897l0.011 0.43c0.098-2.635 0.154-5.73 0.154-8.838 0-36.623-7.784-71.427-21.787-102.85l0.64 1.608c-12.423-28.163-31.918-51.277-56.276-67.742l-0.556-0.354c-22.258-14.455-49.481-23.050-78.712-23.050-0.588 0-1.175 0.003-1.762 0.010l0.089-0.001c-0.244-0.002-0.532-0.003-0.82-0.003-18.198 0-35.515 3.767-51.216 10.565l0.835-0.322c-14.099 6.556-26.025 15.533-35.741 26.51l-0.099 0.114c-10.079 9.161-18.599 19.802-25.272 31.624l-0.328 0.632v-208.896zM149.504 444.416c-0.166-2.621-0.26-5.684-0.26-8.769 0-28.575 8.1-55.258 22.129-77.879l-0.365 0.632c12.417-18.949 33.553-31.291 57.572-31.291 1 0 1.996 0.021 2.986 0.064l-0.141-0.005c1.066-0.059 2.314-0.092 3.569-0.092 24.114 0 45.343 12.348 57.711 31.066l0.16 0.258c13.261 22.244 21.1 49.055 21.1 77.696 0 2.026-0.039 4.042-0.117 6.049l0.009-0.289c0.058 1.573 0.091 3.421 0.091 5.277 0 28.629-7.833 55.43-21.472 78.374l0.389-0.707c-12.413 18.976-33.564 31.339-57.603 31.339-1.35 0-2.69-0.039-4.021-0.116l0.184 0.008c-0.946 0.047-2.055 0.073-3.17 0.073-23.809 0-44.786-12.128-57.089-30.544l-0.157-0.25c-13.564-21.548-21.612-47.754-21.612-75.839 0-1.958 0.039-3.908 0.117-5.847l-0.009 0.278z" />
<glyph unicode="&#x71;" glyph-name="q" data-tags="q" horiz-adv-x="453" d="M301.568 102.4v208.896h-3.072c-5.809-12.372-13.005-23.007-21.587-32.347l0.083 0.091c-9.908-10.967-21.808-19.92-35.16-26.33l-0.68-0.294c-14.962-6.475-32.385-10.241-50.688-10.241-0.18 0-0.36 0-0.54 0.001h0.028c-0.497-0.006-1.084-0.010-1.672-0.010-29.231 0-56.454 8.595-79.28 23.395l0.569-0.346c-25.484 16.679-45.491 39.811-57.963 67.108l-0.405 0.988c-13.335 30.286-21.096 65.594-21.096 102.716 0 2.59 0.038 5.17 0.113 7.742l-0.009-0.378c-0.154 3.286-0.241 7.138-0.241 11.010 0 36.589 7.817 71.352 21.871 102.71l-0.638-1.592c12.788 27.603 32.414 50.187 56.751 66.194l0.593 0.366c22.173 14.136 49.201 22.529 78.189 22.529 0.232 0 0.463-0.001 0.695-0.002h-0.036c1.33 0.054 2.892 0.085 4.46 0.085 18.287 0 35.597-4.187 51.023-11.654l-0.699 0.305c14.113-6.729 26.037-15.87 35.728-27.005l0.112-0.131c7.858-9.389 14.844-19.975 20.56-31.311l0.432-0.945h4.608v65.536h105.984v-537.088zM282.624 527.36c-12.793 18.681-34.012 30.779-58.057 30.779-1.010 0-2.015-0.021-3.014-0.064l0.143 0.005c-0.986 0.050-2.14 0.078-3.302 0.078-24.189 0-45.497-12.334-57.979-31.056l-0.16-0.255c-13.25-22.237-21.083-49.037-21.083-77.667 0-1.856 0.033-3.704 0.098-5.544l-0.008 0.267c-0.143-2.441-0.225-5.296-0.225-8.17 0-28.599 8.086-55.31 22.096-77.971l-0.367 0.638c12.134-19.242 33.275-31.838 57.357-31.838 1.256 0 2.504 0.034 3.743 0.102l-0.172-0.008c0.739-0.028 1.606-0.044 2.478-0.044 24.39 0 45.85 12.539 58.287 31.523l0.163 0.265c13.602 21.951 21.664 48.576 21.664 77.084 0 2.421-0.058 4.829-0.173 7.222l0.013-0.338c0.175 2.656 0.275 5.759 0.275 8.885 0 28.197-8.111 54.499-22.128 76.701l0.35-0.593z" />
<glyph unicode="&#x72;" glyph-name="r" data-tags="r" horiz-adv-x="293" d="M43.52 248.32v391.168h104.96v-68.096h5.12c5.923 22.329 18.577 41.13 35.626 54.621l0.214 0.163c15.338 11.822 34.825 18.948 55.977 18.948 0.301 0 0.601-0.001 0.901-0.004h-0.046c12.178-0.008 24.004-1.501 35.311-4.308l-1.007 0.212v-95.744c-5.986 1.786-13.108 3.227-20.419 4.044l-0.573 0.052h-25.088c-0.634 0.017-1.38 0.027-2.129 0.027-22.155 0-42.306-8.581-57.311-22.6l0.048 0.045c-13.355-14.096-21.567-33.181-21.567-54.184 0-1.111 0.023-2.217 0.069-3.317l-0.005 0.157v-221.184z" />
<glyph unicode="&#x73;" glyph-name="s" data-tags="s" horiz-adv-x="403" d="M368.64 527.872l-99.328-6.144c-2.927 13.224-10.26 24.394-20.35 32.16l-0.13 0.096c-11.362 8.661-25.757 13.876-41.369 13.876-0.936 0-1.868-0.019-2.796-0.056l0.133 0.004c-0.757 0.026-1.646 0.041-2.539 0.041-14.722 0-28.508-4.009-40.326-10.994l0.369 0.202c-10.363-5.328-17.343-15.921-17.408-28.151v-0.009c-0.064-0.733-0.101-1.586-0.101-2.447 0-8.253 3.367-15.721 8.803-21.103l0.002-0.002c10.779-7.876 23.808-13.333 37.953-15.309l0.447-0.051 71.168-14.336c74.752-15.36 112.64-51.2 112.64-105.984 0.017-0.714 0.027-1.555 0.027-2.398 0-24.707-8.495-47.429-22.724-65.406l0.168 0.22c-15.909-19.957-36.642-35.42-60.461-44.719l-0.979-0.337c-25.575-10.369-55.24-16.385-86.311-16.385-0.256 0-0.512 0-0.768 0.001h0.039c-3.013-0.154-6.543-0.242-10.093-0.242-42.053 0-81.231 12.305-114.132 33.512l0.832-0.502c-28.242 20.463-47.408 51.962-51.155 88.041l-0.045 0.535 106.496 5.12c2.851-15.016 11.444-27.63 23.359-35.716l0.193-0.124c12.531-7.764 27.73-12.365 44.004-12.365 1.27 0 2.534 0.028 3.791 0.084l-0.179-0.006c1.244-0.067 2.701-0.105 4.167-0.105 15.449 0 29.911 4.224 42.295 11.579l-0.383-0.21c8.139 6.135 13.346 15.784 13.346 26.65 0 0.531-0.012 1.060-0.037 1.585l0.003-0.074c0 18.944-17.408 32.256-51.2 38.912l-66.56 12.288c-75.776 16.896-113.664 51.2-113.152 113.152-0.055 1.251-0.086 2.718-0.086 4.192 0 35.191 17.751 66.235 44.788 84.668l0.354 0.228c31.498 20.753 70.127 33.105 111.642 33.105 4.133 0 8.238-0.122 12.311-0.364l-0.561 0.027c2.971 0.163 6.448 0.256 9.947 0.256 38.699 0 74.745-11.358 104.987-30.923l-0.758 0.459c27.374-20.118 45.939-50.843 49.619-85.999l0.045-0.529z" />
<glyph unicode="&#x74;" glyph-name="t" data-tags="t" horiz-adv-x="279" d="M251.392 639.488v-81.408h-73.728v-189.44c-0.17-1.331-0.268-2.871-0.268-4.434 0-10.035 4.010-19.133 10.514-25.781l-0.006 0.007c6.941-5.135 15.67-8.219 25.119-8.219 0.529 0 1.056 0.010 1.581 0.029l-0.076-0.002c2.227-0.24 4.809-0.377 7.424-0.377s5.197 0.137 7.741 0.404l-0.317-0.027h11.776l17.408-80.384-23.040-6.144c-10.572-2.22-22.902-3.692-35.504-4.088l-0.336-0.008c-4.133-0.44-8.929-0.691-13.783-0.691-30.419 0-58.534 9.861-81.324 26.561l0.386-0.27c-22.155 18.901-36.112 46.845-36.112 78.049 0 2.623 0.099 5.224 0.292 7.798l-0.021-0.343v204.8h-51.2v83.968h51.2v93.696h108.544v-93.696z" />
<glyph unicode="&#x75;" glyph-name="u" data-tags="u" horiz-adv-x="446" d="M293.888 414.72v224.768h108.544v-391.168h-102.4v71.168h-5.632c-8.967-22.96-24.211-41.834-43.624-55.034l-0.408-0.262c-20.108-13.191-44.749-21.040-71.223-21.040-1.241 0-2.478 0.017-3.71 0.052l0.181-0.004c-1.302-0.048-2.832-0.076-4.368-0.076-35.991 0-68.442 15.158-91.317 39.437l-0.059 0.063c-23.018 27.097-37.016 62.482-37.016 101.136 0 2.425 0.055 4.838 0.164 7.236l-0.012-0.34v248.832h110.592v-229.888c-0.038-0.915-0.059-1.989-0.059-3.068 0-19.778 7.189-37.877 19.095-51.826l-0.092 0.111c11.222-12.732 27.567-20.722 45.779-20.722 1.909 0 3.797 0.088 5.661 0.259l-0.239-0.018c19.821 0.272 37.783 8.011 51.248 20.524l-0.048-0.044c12.164 13.037 19.632 30.593 19.632 49.893 0 3.531-0.25 7.003-0.733 10.401l0.045-0.39z" />
<glyph unicode="&#x76;" glyph-name="v" data-tags="v" horiz-adv-x="420" d="M409.6 639.488l-138.752-391.168h-121.856l-136.704 391.168h114.688l80.896-281.088h4.096l80.896 281.088z" />
<glyph unicode="&#x77;" glyph-name="w" data-tags="w" horiz-adv-x="609" d="M120.32 248.32l-106.496 391.168h110.080l60.416-262.656h3.584l62.976 262.656h107.52l64.512-261.12h3.072l59.904 261.12h109.056l-105.984-391.168h-114.688l-67.072 246.272h-5.12l-67.072-246.272z" />
<glyph unicode="&#x78;" glyph-name="x" data-tags="x" horiz-adv-x="411" d="M134.144 639.488l70.656-136.704 74.24 136.704h111.616l-113.664-195.584 116.736-195.584h-111.104l-77.824 135.168-74.752-135.168h-112.128l116.224 195.584-112.128 195.584z" />
<glyph unicode="&#x79;" glyph-name="y" data-tags="y" horiz-adv-x="420" d="M110.080 102.4c-0.411-0.003-0.897-0.004-1.383-0.004-13.075 0-25.888 1.119-38.35 3.266l1.333-0.19c-11.251 1.945-21.226 4.789-30.736 8.555l1.040-0.363 24.576 80.896c9.997-3.581 21.531-5.651 33.548-5.651 5.144 0 10.199 0.379 15.139 1.111l-0.559-0.068c14.828 4.673 26.321 15.998 31.135 30.384l0.097 0.336 7.68 16.384-141.312 402.432h114.176l80.896-287.232h4.096l81.408 287.232h116.736l-153.6-434.688c-10.501-30.137-28.147-55.537-50.966-75.068l-0.234-0.196c-23.624-17.158-53.204-27.448-85.188-27.448-3.354 0-6.681 0.113-9.979 0.336l0.446-0.024z" />
<glyph unicode="&#x7a;" glyph-name="z" data-tags="z" horiz-adv-x="410" d="M40.96 248.32v65.024l191.488 237.056v2.56h-184.832v86.528h315.392v-70.656l-179.712-230.912v-3.072h186.368v-86.528z" />
<glyph unicode="&#x7b;" glyph-name="open-brace" data-tags="open-brace" horiz-adv-x="293" d="M276.48 135.168c-1.534-0.020-3.345-0.031-5.159-0.031-23.482 0-46.527 1.873-68.993 5.478l2.471-0.327c-20.889 2.601-39.773 9.311-56.462 19.307l0.654-0.363c-16.26 10.349-28.95 25.016-36.623 42.395l-0.241 0.613c-6.54 18.036-10.321 38.852-10.321 60.552 0 5.178 0.215 10.306 0.638 15.376l-0.044-0.663v56.832c0.201 2.135 0.316 4.616 0.316 7.124 0 18.842-6.483 36.171-17.34 49.876l0.128-0.167c-14.49 11.839-33.195 19.012-53.575 19.012-3.493 0-6.937-0.211-10.32-0.62l0.407 0.040v96.768c2.775-0.321 5.99-0.505 9.248-0.505 19.759 0 37.943 6.743 52.377 18.053l-0.185-0.14c11.869 13.921 19.089 32.12 19.089 52.005 0 1.698-0.053 3.384-0.156 5.056l0.011-0.229v56.32c-0.102 2.286-0.161 4.967-0.161 7.662 0 24.347 4.76 47.582 13.4 68.825l-0.44-1.223c7.914 17.992 20.604 32.659 36.477 42.777l0.387 0.231c15.129 9.411 32.891 16.233 51.901 19.343l0.835 0.113c20.402 2.942 43.962 4.622 67.914 4.622 1.324 0 2.647-0.005 3.968-0.015l-0.202 0.001v-80.896c-3.184 0.49-6.857 0.771-10.595 0.771-18.538 0-35.467-6.89-48.366-18.248l0.081 0.070c-8.222-13.563-13.088-29.954-13.088-47.482 0-2.57 0.105-5.116 0.31-7.633l-0.022 0.331v-74.752c0.001-0.152 0.001-0.332 0.001-0.512 0-14.034-2.823-27.408-7.933-39.587l0.251 0.675c-5.928-12.898-15.252-23.375-26.838-30.548l-0.298-0.172c-16.107-10.392-35.075-17.93-55.433-21.38l-0.887-0.124v-9.728c21.245-3.574 40.213-11.112 56.916-21.863l-0.596 0.359c11.766-7.482 21.051-17.918 26.947-30.281l0.189-0.439c4.503-11.070 7.132-23.911 7.168-37.362v-74.254c-0.147-1.959-0.232-4.243-0.232-6.547 0-17.838 5.040-34.498 13.773-48.635l-0.229 0.398c12.818-11.289 29.747-18.179 48.285-18.179 3.738 0 7.411 0.28 10.998 0.821l-0.404-0.050z" />
<glyph unicode="&#x7d;" glyph-name="close-brace" data-tags="close brace" horiz-adv-x="293" d="M16.384 779.776c1.161 0.011 2.534 0.017 3.908 0.017 23.74 0 47.045-1.868 69.774-5.465l-2.513 0.328c20.889-2.601 39.773-9.311 56.462-19.307l-0.654 0.363c16.26-10.349 28.95-25.016 36.623-42.395l0.241-0.613c8.165-20.492 12.899-44.239 12.899-69.093 0-2.17-0.036-4.332-0.108-6.485l0.008 0.313v-56.832c-0.201-2.135-0.316-4.616-0.316-7.124 0-18.842 6.483-36.171 17.34-49.876l-0.128 0.167c14.067-11.171 32.082-17.923 51.675-17.923 3.26 0 6.477 0.187 9.639 0.551l-0.386-0.036v-96.768c-2.777 0.328-5.993 0.515-9.253 0.515-19.592 0-37.608-6.751-51.847-18.054l0.172 0.132c-10.729-13.538-17.212-30.866-17.212-49.708 0-2.508 0.115-4.989 0.34-7.438l-0.023 0.315v-56.32c0.045-1.555 0.071-3.385 0.071-5.221 0-24.826-4.724-48.548-13.323-70.317l0.452 1.297c-7.914-17.992-20.604-32.659-36.477-42.777l-0.387-0.231c-16.014-9.793-34.88-16.669-55.068-19.375l-0.74-0.081c-20.603-2.937-44.398-4.615-68.585-4.615-0.908 0-1.815 0.002-2.722 0.007l0.14-0.001v78.848c30.208 0 51.2 5.632 58.88 17.408 8.828 13.591 14.078 30.214 14.078 48.064 0 2.365-0.092 4.708-0.273 7.027l0.019-0.307v74.752c0.105 13.297 2.727 25.951 7.413 37.551l-0.245-0.687c5.928 12.898 15.252 23.375 26.838 30.548l0.298 0.172c16.107 10.392 35.075 17.93 55.433 21.38l0.887 0.124v8.192c-21.245 3.574-40.213 11.112-56.916 21.863l0.596-0.359c-11.647 7.224-20.904 17.302-26.945 29.279l-0.191 0.417c-4.503 11.070-7.132 23.911-7.168 37.362v76.814c0.162 2.012 0.254 4.355 0.254 6.72 0 17.85-5.249 34.473-14.289 48.411l0.211-0.347c-8.704 11.776-28.672 17.408-58.88 17.408z" />
<glyph unicode="&#xe900;" glyph-name="exit" data-tags="exit" d="M473.6 204.8h-204.8v512h204.8v-102.4h102.4v204.8h-409.6v-716.8h409.6v204.8h-102.4v-102.4zM857.6 460.8l-179.2 179.2v-128h-256v-102.4h256v-128l179.2 179.2z" />
<glyph unicode="&#xe901;" glyph-name="layout" data-tags="layout" d="M153.6 512v-102.4h102.4v102.4zM768 665.6v-102.4h102.4v102.4zM153.6 665.6v-102.4h102.4v102.4zM614.4 819.2v-102.4h102.4v102.4zM153.6 819.2v-102.4h102.4v102.4zM768 819.2v-102.4h102.4v102.4zM307.2 819.2v-102.4h102.4v102.4zM307.2 204.8v-102.4h102.4v102.4zM153.6 204.8v-102.4h102.4v102.4zM614.4 204.8v-102.4h102.4v102.4zM870.4 204.8h-102.4v-102.4h102.4v102.4zM768 512v-102.4h102.4v102.4zM768 358.4v-102.4h102.4v102.4zM153.6 358.4v-102.4h102.4v102.4zM460.8 819.2v-716.8h102.4v716.8h-102.4z" />
<glyph unicode="&#xe902;" glyph-name="window" data-tags="window" d="M153.6 870.4c-28.277 0-51.2-22.923-51.2-51.2v0-716.8c0-28.277 22.923-51.2 51.2-51.2v0h716.8c28.277 0 51.2 22.923 51.2 51.2v0 716.8c0 28.277-22.923 51.2-51.2 51.2v0zM204.8 563.2h614.4v-409.6h-614.4zM665.6 768h153.6v-102.4h-153.6z" />
<glyph unicode="&#xe903;" glyph-name="rotate-shape" data-tags="rotate-shape" d="M690.176 677.376l282.624-282.624-283.136-282.624-280.064 282.624zM849.408 394.752l-159.744 159.232-158.72-159.232 159.232-159.744zM166.4 665.6c70.564 71.719 168.53 116.294 276.908 116.736h0.084v139.264l184.832-184.832-184.832-182.784v141.312c-2.886 0.097-6.28 0.153-9.686 0.153-169.662 0-307.2-137.538-307.2-307.2s137.538-307.2 307.2-307.2c48.592 0 94.549 11.282 135.395 31.369l-1.805-0.802 65.024-65.024c-53.728-29.347-117.693-46.605-185.688-46.605-1.139 0-2.278 0.005-3.415 0.015l0.174-0.001c-214.566 3.024-387.341 177.669-387.341 392.667 0 106.1 42.076 202.372 110.453 273.040l-0.104-0.108z" />
<glyph unicode="&#xe904;" glyph-name="desktop" data-tags="desktop" d="M853.504 204.8c46.592 0 68.096 55.296 68.096 102.4v409.6c-3.072 39.936-13.824 96.256-51.2 102.4h-716.8c-47.104 0-51.2-55.296-51.2-102.4v-409.6c0-47.104 21.504-102.4 68.096-102.4zM204.8 716.8h614.4v-409.6h-614.4zM204.8 153.6h-153.6v-102.4h921.6v102.4h-153.6z" />
<glyph unicode="&#xe905;" glyph-name="card" data-tags="card" d="M204.8 358.4h614.4v-51.2c0-28.277-22.923-51.2-51.2-51.2v0h-512c-28.277 0-51.2 22.923-51.2 51.2v0 51.2zM754.688 819.2h-485.376c-0.153 0.001-0.333 0.002-0.514 0.002-35.346 0-64-28.654-64-64 0-0.181 0.001-0.361 0.002-0.542v0.028-280.576c-0.001-0.153-0.002-0.333-0.002-0.514 0-35.346 28.654-64 64-64 0.181 0 0.361 0.001 0.542 0.002h485.348c0.153-0.001 0.333-0.002 0.514-0.002 35.346 0 64 28.654 64 64 0 0.181-0.001 0.361-0.002 0.542v-0.028 280.576c0.001 0.153 0.002 0.333 0.002 0.514 0 35.346-28.654 64-64 64-0.181 0-0.361-0.001-0.542-0.002h0.028zM709.12 512h-394.24c-4.242 0-7.68 3.438-7.68 7.68v189.44c0 4.242 3.438 7.68 7.68 7.68v0h394.24c4.242 0 7.68-3.438 7.68-7.68v0-189.44c0-4.242-3.438-7.68-7.68-7.68v0zM204.8 204.8h614.4v-51.2c0-28.277-22.923-51.2-51.2-51.2v0h-512c-28.277 0-51.2 22.923-51.2 51.2v0 51.2z" />
<glyph unicode="&#xe906;" glyph-name="drag" data-tags="drag" d="M460.8 409.6h-153.6v-128l-179.2 179.2 179.2 179.2v-128h153.6v153.6h102.4v-153.6h153.6v-102.4h-153.6v-153.6h128l-179.2-179.2-179.2 179.2h128zM716.8 281.6l179.2 179.2-179.2 179.2zM332.8 665.6l179.2 179.2 179.2-179.2z" />
<glyph unicode="&#xe907;" glyph-name="folder" data-tags="folder" d="M819.2 716.8h-307.2l-102.4 102.4h-204.8c-54.945-3.829-98.571-47.455-102.381-102.054l-0.019-0.346v-512c3.829-54.945 47.455-98.571 102.054-102.381l0.346-0.019h614.4c54.945 3.829 98.571 47.455 102.381 102.054l0.019 0.346v409.6c-3.829 54.945-47.455 98.571-102.054 102.381l-0.346 0.019zM819.2 204.8h-614.4v409.6h614.4z" />
<glyph unicode="&#xe908;" glyph-name="history" data-tags="history" d="M569.344 806.4c0 0 0 0 0 0-190.587 0-345.088-154.501-345.088-345.088 0-0.18 0-0.36 0-0.54v0.028h-115.712l150.016-149.504v-5.632l153.6 153.6h-111.104c0.277 147.962 120.288 267.801 268.288 267.801 148.171 0 268.288-120.117 268.288-268.288s-120.117-268.288-268.288-268.288c-74.207 0-141.377 30.127-189.946 78.818l-0.006 0.006-51.2-54.272c62.399-61.712 148.237-99.835 242.979-99.835 190.87 0 345.6 154.73 345.6 345.6s-154.73 345.6-345.6 345.6c-0.642 0-1.284-0.002-1.926-0.005h0.098zM531.456 614.4v-192l164.352-97.28 27.136 46.592-133.632 79.872v162.816z" />
<glyph unicode="&#xe909;" glyph-name="shapes" data-tags="shapes" d="M619.52 614.4c0 115.936-93.984 209.92-209.92 209.92s-209.92-93.984-209.92-209.92c0-115.936 93.984-209.92 209.92-209.92v0c0.152 0 0.332-0.001 0.513-0.001 115.653 0 209.408 93.755 209.408 209.408 0 0.18 0 0.36-0.001 0.54v-0.028zM819.2 665.6h-102.4v-102.4h51.2v-307.2h-307.2v51.2h-102.4v-102.4c0-28.277 22.923-51.2 51.2-51.2v0h409.6c28.277 0 51.2 22.923 51.2 51.2v0 409.6c0 28.277-22.923 51.2-51.2 51.2v0z" />
<glyph unicode="&#xe90a;" glyph-name="shapes-alt" data-tags="shapes-alt" d="M153.6 921.6h716.8c56.554 0 102.4-45.846 102.4-102.4v0-716.8c0-56.554-45.846-102.4-102.4-102.4v0h-716.8c-56.554 0-102.4 45.846-102.4 102.4v0 716.8c0 56.554 45.846 102.4 102.4 102.4v0zM358.4 409.6c113.108 0 204.8 91.692 204.8 204.8s-91.692 204.8-204.8 204.8c-113.108 0-204.8-91.692-204.8-204.8v0c0-113.108 91.692-204.8 204.8-204.8v0zM512 460.8v-358.4h358.4v358.4z" />
<glyph unicode="&#xe90b;" glyph-name="mic" data-tags="mic" d="M486.4 208.896c-146.222 25.392-256 151.328-256 302.903 0 0.071 0 0.141 0 0.212v-0.011h76.8c0-127.246 103.154-230.4 230.4-230.4s230.4 103.154 230.4 230.4v0h76.8c0-0.060 0-0.13 0-0.201 0-151.576-109.778-277.512-254.165-302.639l-1.835-0.264v-157.696h-102.4zM537.6 358.4c-70.692 0-128 57.308-128 128v0 256c0 70.692 57.308 128 128 128s128-57.308 128-128v0-256c0.001-0.152 0.001-0.333 0.001-0.513 0-70.41-57.078-127.488-127.488-127.488-0.18 0-0.361 0-0.541 0.001h0.028z" />
<glyph unicode="&#xe90c;" glyph-name="volume" data-tags="volume" d="M166.4 576v-230.4h153.6l192-192v614.4l-192-192zM685.056 460.8c-0.467 67.055-39.112 124.974-95.262 153.148l-0.994 0.452v-307.2c57.383 28.351 96.173 86.436 96.256 153.589v0.011zM588.8 797.696v-80.896c109.289-35.771 186.84-136.829 186.84-256s-77.551-220.229-184.94-255.46l-1.9-0.54v-79.36c154.932 36.345 268.526 173.355 268.526 336.896s-113.594 300.55-266.184 336.432l-2.342 0.464z" />
<glyph unicode="&#xe90d;" glyph-name="tag" data-tags="tag" d="M870.4 716.8c0 28.277-22.923 51.2-51.2 51.2v0h-396.288c-33.238-2.012-62.528-17.405-82.818-40.812l-0.126-0.148-173.568-225.28c-7.911-11.467-12.636-25.662-12.636-40.96s4.725-29.493 12.795-41.205l-0.159 0.245 173.568-225.28c20.347-23.647 49.677-39.072 82.633-40.946l0.311-0.014h396.288c28.277 0 51.2 22.923 51.2 51.2v0z" />
<glyph unicode="&#xe90e;" glyph-name="page-add" data-tags="page-add" d="M563.2 870.4h-307.2c-28.277 0-51.2-22.923-51.2-51.2v0-716.8c0-28.277 22.923-51.2 51.2-51.2v0h512c28.277 0 51.2 22.923 51.2 51.2v0 512zM665.6 307.2h-153.6v-153.6h-51.2v153.6h-153.6v51.2h153.6v153.6h51.2v-153.6h153.6zM563.2 614.4v204.8l204.8-204.8z" />
<glyph unicode="&#xe90f;" glyph-name="page" data-tags="page" d="M768 768v102.4h-563.2c-28.277 0-51.2-22.923-51.2-51.2v0-665.6h102.4v563.2c0 36.864 8.704 51.2 51.2 51.2zM768 307.2v279.040c0 25.088 0 28.16-26.624 28.16h-307.2c-24.576 0-24.576-3.072-24.576-28.16v-404.48c0-25.088 0-28.16 27.648-28.16h177.152v153.6zM358.4 51.2c-28.277 0-51.2 22.923-51.2 51.2v0 563.2c0 28.277 22.923 51.2 51.2 51.2v0h460.8c38.912 0 51.2-14.848 51.2-51.2v-438.272l-186.88-176.128z" />
<glyph unicode="&#xe910;" glyph-name="transition" data-tags="transition" d="M630.272 855.552c-0.067 0-0.147 0-0.227 0-106.021 0-198.079-59.787-244.297-147.484l-0.724-1.508c-51.060-27.012-91.772-67.724-118.049-117.266l-0.735-1.518c-89.315-47.047-149.168-139.245-149.168-245.424 0-152.696 123.784-276.48 276.48-276.48 106.178 0 198.377 59.852 244.698 147.659l0.726 1.509c51.060 27.012 91.772 67.724 118.049 117.266l0.735 1.518c89.128 47.104 148.83 139.204 148.83 245.248 0 152.639-123.692 276.388-276.309 276.48h-0.009zM393.728 144.896c-109.149 0-197.632 88.483-197.632 197.632v0c0 0.152-0.001 0.332-0.001 0.512 0 44.431 14.816 85.402 39.776 118.242l-0.351-0.482c0-0.152 0-0.332 0-0.512 0-152.413 123.555-275.968 275.968-275.968 0.18 0 0.36 0 0.54 0.001h-0.028c-32.357-24.609-73.328-39.425-117.76-39.425-0.18 0-0.36 0-0.54 0.001h0.028zM512 263.168c-109.094 0.073-197.504 88.528-197.504 197.632 0 44.58 14.76 85.712 39.66 118.777l-0.364-0.504c0.579-152.462 124.018-275.9 276.424-276.48h0.056c-32.548-24.581-73.678-39.384-118.263-39.424h-0.009zM630.272 380.416c-109.432 0-198.144 88.712-198.144 198.144s88.712 198.144 198.144 198.144c109.432 0 198.144-88.712 198.144-198.144v0c0-109.432-88.712-198.144-198.144-198.144v0z" />
<glyph unicode="&#xe911;" glyph-name="printer" data-tags="printer" d="M819.2 614.4h-614.4c-56.554 0-102.4-45.846-102.4-102.4v0-256h153.6v-153.6h512v153.6h153.6v256c0 56.554-45.846 102.4-102.4 102.4v0zM665.6 204.8h-307.2v153.6h307.2zM819.2 409.6h-102.4v102.4h102.4zM256 819.2h512v-153.6h-512v153.6z" />
<glyph unicode="&#xe912;" glyph-name="drag-handle" data-tags="darg-handle" d="M409.6 716.8c-28.277 0-51.2-22.923-51.2-51.2s22.923-51.2 51.2-51.2c28.277 0 51.2 22.923 51.2 51.2v0c0 28.277-22.923 51.2-51.2 51.2v0zM614.4 716.8c-28.277 0-51.2-22.923-51.2-51.2s22.923-51.2 51.2-51.2c28.277 0 51.2 22.923 51.2 51.2v0c0 28.277-22.923 51.2-51.2 51.2v0zM614.4 512c-28.277 0-51.2-22.923-51.2-51.2s22.923-51.2 51.2-51.2c28.277 0 51.2 22.923 51.2 51.2v0c0 28.277-22.923 51.2-51.2 51.2v0zM614.4 307.2c-28.277 0-51.2-22.923-51.2-51.2s22.923-51.2 51.2-51.2c28.277 0 51.2 22.923 51.2 51.2v0c0 28.277-22.923 51.2-51.2 51.2v0zM409.6 307.2c-28.277 0-51.2-22.923-51.2-51.2s22.923-51.2 51.2-51.2c28.277 0 51.2 22.923 51.2 51.2v0c0 28.277-22.923 51.2-51.2 51.2v0zM409.6 512c-28.277 0-51.2-22.923-51.2-51.2s22.923-51.2 51.2-51.2c28.277 0 51.2 22.923 51.2 51.2v0c0 28.277-22.923 51.2-51.2 51.2v0z" />
<glyph unicode="&#xe913;" glyph-name="calendar" data-tags="calendar" d="M716.8 460.8h-204.8v-204.8h204.8v204.8zM819.2 819.2h-51.2v51.2h-102.4v-51.2h-307.2v51.2h-102.4v-51.2h-51.2c-28.277 0-51.2-22.923-51.2-51.2v0-614.4c0-28.277 22.923-51.2 51.2-51.2v0h614.4c28.277 0 51.2 22.923 51.2 51.2v0 614.4c0 28.277-22.923 51.2-51.2 51.2v0zM768 204.8h-512v409.6h512v-409.6z" />
<glyph unicode="&#xe914;" glyph-name="clipboard" data-tags="clipboard" d="M614.4 768c0.043 1.089 0.067 2.367 0.067 3.651 0 54.575-44.241 98.816-98.816 98.816-1.284 0-2.563-0.024-3.835-0.073l0.183 0.006c-56.554 0-102.4-45.846-102.4-102.4v0h-204.8c-28.277 0-51.2-22.923-51.2-51.2v0-614.4c0-28.277 22.923-51.2 51.2-51.2v0h614.4c28.277 0 51.2 22.923 51.2 51.2v0 614.4c0 28.277-22.923 51.2-51.2 51.2v0zM460.8 768h102.4v-51.2h-102.4zM256 153.6v512h51.2v-51.2h409.6v51.2h51.2v-512z" />
<glyph unicode="&#xe915;" glyph-name="play" data-tags="play" d="M512 51.2c-226.216 0-409.6 183.384-409.6 409.6s183.384 409.6 409.6 409.6c226.216 0 409.6-183.384 409.6-409.6v0c0-226.216-183.384-409.6-409.6-409.6v0zM512 768c-169.662 0-307.2-137.538-307.2-307.2s137.538-307.2 307.2-307.2c169.662 0 307.2 137.538 307.2 307.2v0c0 169.662-137.538 307.2-307.2 307.2v0zM409.6 287.744l256 173.056-256 173.056z" />
<glyph unicode="&#xe916;" glyph-name="flag" data-tags="flag" d="M588.8 716.8h230.4v-460.8h-281.6l-51.2 102.4h-179.2v-256h-102.4v716.8h332.8zM716.8 358.4v256h-179.2l-51.2 102.4h-179.2v-256h230.4l51.2-102.4z" />
<glyph unicode="&#xe917;" glyph-name="torch" data-tags="torch" d="M256 358.4l102.4-102.4v-204.8h307.2v204.8l102.4 102.4v204.8h-512zM460.8 870.4h102.4v-153.6h-102.4zM793.6 819.2l76.8-76.8-102.4-102.4-76.8 76.8zM153.6 742.4l76.8 76.8 102.4-102.4-76.8-76.8z" />
<glyph unicode="&#xe918;" glyph-name="dislike" data-tags="dislike" d="M768 819.2h153.6v-460.8h-153.6v460.8zM102.4 435.2v0zM640 870.4h-345.6c-31.476-0.122-58.504-19.035-70.461-46.098l-0.195-0.494-115.712-270.848c-3.523-8.321-5.589-17.993-5.632-28.143v-0.017c0.901-13.396 1.415-29.038 1.415-44.8s-0.513-31.403-1.525-46.91l0.11 2.11c0-42.496 22.528-76.8 65.024-76.8h242.176l-24.576-162.816v-12.288c0.175-15.792 6.594-30.051 16.9-40.452l40.444-40.444 252.928 252.928c13.307 13.489 21.525 32.028 21.525 52.486 0 0.628-0.008 1.254-0.023 1.878l0.002-0.092v384c0 42.415-34.385 76.8-76.8 76.8v0z" />
<glyph unicode="&#xe919;" glyph-name="like" data-tags="like" d="M102.4 153.6h153.6v460.8h-153.6v-460.8zM856.576 614.4h-242.176l24.576 162.816v12.288c0.002 0.195 0.004 0.425 0.004 0.656 0 15.617-6.474 29.721-16.884 39.776l-0.016 0.015-39.424 40.448-252.928-252.928c-13.908-13.587-22.532-32.53-22.532-53.488 0-0.276 0.001-0.551 0.004-0.826v0.042-384c0.288-42.299 34.501-76.512 76.772-76.8h345.628c31.476 0.122 58.504 19.035 70.461 46.098l0.195 0.494 116.224 270.848c3.084 8.361 4.946 18.016 5.119 28.083l0.001 0.077c-0.901 13.396-1.415 29.038-1.415 44.8s0.513 31.403 1.525 46.91l-0.11-2.11s0-3.584 0-3.584v3.584c0 41.984-22.528 76.8-65.024 76.8z" />
<glyph unicode="&#xe91a;" glyph-name="menu-level" data-tags="menu-level" d="M256 460.8h204.8v-102.4h102.4v102.4h204.8v-102.4h102.4v204.8h-716.8v-204.8h102.4v102.4zM604.16 153.6c0-50.899-41.261-92.16-92.16-92.16s-92.16 41.261-92.16 92.16c0 50.899 41.261 92.16 92.16 92.16s92.16-41.261 92.16-92.16zM911.36 153.6c0-50.899-41.261-92.16-92.16-92.16s-92.16 41.261-92.16 92.16c0 50.899 41.261 92.16 92.16 92.16s92.16-41.261 92.16-92.16zM296.96 153.6c0-50.899-41.261-92.16-92.16-92.16s-92.16 41.261-92.16 92.16c0 50.899 41.261 92.16 92.16 92.16s92.16-41.261 92.16-92.16zM604.16 768c0-50.899-41.261-92.16-92.16-92.16s-92.16 41.261-92.16 92.16c0 50.899 41.261 92.16 92.16 92.16s92.16-41.261 92.16-92.16z" />
<glyph unicode="&#xe91b;" glyph-name="time" data-tags="time" d="M464.384 413.184l119.296-119.808 71.68 71.68-95.744 95.744v190.976h-95.232zM512 819.2c-197.939 0-358.4-160.461-358.4-358.4s160.461-358.4 358.4-358.4c197.939 0 358.4 160.461 358.4 358.4v0c0 197.939-160.461 358.4-358.4 358.4v0zM512 174.080c-158.351 0-286.72 128.369-286.72 286.72s128.369 286.72 286.72 286.72c158.351 0 286.72-128.369 286.72-286.72v0c0-158.351-128.369-286.72-286.72-286.72v0z" />
<glyph unicode="&#xe91c;" glyph-name="stop-watch" data-tags="stop-watch" d="M896 699.392l-176.64 147.968-51.2-58.88 176.64-147.968 51.2 58.88zM353.792 788.48l-46.592 58.88-179.2-147.968 51.2-58.88 174.592 147.968zM460.8 407.040l128-128 76.8 76.8-102.4 102.4v153.6h-102.4zM512 765.44c-190.87 0-345.6-154.73-345.6-345.6s154.73-345.6 345.6-345.6c190.87 0 345.6 154.73 345.6 345.6v0c0 190.87-154.73 345.6-345.6 345.6v0zM512 151.040c-148.454 0-268.8 120.346-268.8 268.8s120.346 268.8 268.8 268.8c148.454 0 268.8-120.346 268.8-268.8v0c0-148.454-120.346-268.8-268.8-268.8v0z" />
<glyph unicode="&#xe91d;" glyph-name="alert-help" data-tags="alert-help" d="M499.2 870.4c-226.216 0-409.6-183.384-409.6-409.6s183.384-409.6 409.6-409.6c226.216 0 409.6 183.384 409.6 409.6v0c0 226.216-183.384 409.6-409.6 409.6v0zM499.2 128c-183.104 1.721-331.079 149.696-332.799 332.636l-0.001 0.164c2.002 182.99 149.81 330.799 332.61 332.798l0.19 0.002c182.99-2.002 330.799-149.81 332.798-332.61l0.002-0.19c-1.721-183.104-149.696-331.079-332.636-332.799l-0.164-0.001zM563.2 256c0-28.277-22.923-51.2-51.2-51.2s-51.2 22.923-51.2 51.2c0 28.277 22.923 51.2 51.2 51.2v0c28.277 0 51.2-22.923 51.2-51.2v0zM345.6 563.2c6.144 0 76.8 0 76.8 0-0.028 0.768-0.044 1.671-0.044 2.577 0 41.567 33.697 75.264 75.264 75.264 0.556 0 1.11-0.006 1.663-0.018l-0.082 0.001c0.157 0.001 0.342 0.002 0.528 0.002 42.133 0 76.288-34.155 76.288-76.288 0-0.541-0.006-1.080-0.017-1.618l0.001 0.080c-0.471-27.777-15.142-52.028-37.049-65.855l-0.327-0.193c-20.992-12.8-77.824-43.52-77.824-99.328v-39.424h76.8s0 31.232 0 31.232c0 36.864 114.688 54.784 114.176 172.032 0.028 1.080 0.044 2.352 0.044 3.628 0 82.852-67.164 150.016-150.016 150.016-1.276 0-2.548-0.016-3.816-0.048l0.188 0.004c-83.855-0.573-151.713-68.251-152.575-151.982l-0.001-0.082z" />
</font>
</defs>
</svg>
